3d-tracker.ru • Просмотр темы - Вики, маленький викинг 2 3Д / Wickie auf grosser Fahrt 3D

Регистрация Имя: Пароль: Запомнить Забыли пароль?



Правила форума





Начать новую тему Ответить на тему  [ 1 сообщение ] 
Статистика раздачи
Размер: 7.35 ГБ | Зарегистрирован: 06 апр 2012, 20:56 | .torrent скачан: 24
Сиды: 12 [0 байт/сек]    Личи: 9 [0 байт/сек]
Автор Сообщение
 СообщениеДобавлено: 06 апр 2012, 20:56 
Не в сети
Опытный
Аватара пользователя
Зарегистрирован: 14 янв 2012, 02:46
Торренты: 43
Раздал: 7.18 ТБ 
Скачал: 157.95 ГБ 
Ратио: 46.557
Спасибо: 832 / 7
Сообщения: 52
Комментарии: 8

Оригинальное название: Wickie auf grosser Fahrt
Страна: Германия
Продолжительность: 01:36:16
Дата выхода: 2011
Жанр: Приключения, Комедия, Семейный
Режиссёр: Кристиан Диттер
В ролях: Йонас Хеммерле, Валерия Айзенбарт, Вальдемар Кобус, Ник Ромм, Кристиан Кох, Олаф Крэтке, Мике Маас, Патрик Райхель, Йорг Моукаддам, Занне Шнапп, Мерседес Хадеа Диас
О фильме: Вождь клана викингов Хальвар с нетерпением ждет, когда его сын Вики станет таким же сильным и могучим, как он. Но в отличие от своих соплеменников, Вики грубой силе предпочитает ум и смекалку. После того как Хальвара похищает его извечный враг Свен, маленького Вики выбирают вождем клана. Теперь он должен отправиться на поиски отца, а заодно по пути попытаться разыскать легендарный молот Тора.



MediaInfo: Format : Matroska
Format version : Version 2
File size : 7.35 GiB
Duration : 1h 36mn
Overall bit rate : 10.9 Mbps
Movie name : VICKY.AND.THE TREASURE.OF.THE.GOD.3D.1080P.DTS.GER.SUB.ENG.FR.LNA3D
Encoded date : UTC 2012-04-05 18:50:26
Writing application : mkvmerge v4.0.0 ('The Stars were mine') сборка от Jun 6 2010 16:18:42
Writing library : libebml v1.0.0 + libmatroska v1.0.0

Video
ID : 1
Format : AVC
Format/Info : Advanced Video Codec
Format profile : High@L4.1
Format settings, CABAC : Yes
Format settings, ReFrames : 4 frames
Codec ID : V_MPEG4/ISO/AVC
Duration : 1h 36mn
Bit rate : 9 624 Kbps
Width : 1 920 pixels
Height : 1 080 pixels
Display aspect ratio : 16:9
Frame rate : 23.976 fps
Color space : YUV
Chroma subsampling : 4:2:0
Bit depth : 8 bits
Scan type : Progressive
Bits/(Pixel*Frame) : 0.194
Stream size : 6.47 GiB (88%)
Title : cnliti-20120303
Writing library : x264 core 120 r2146 bcd41db
Encoding settings : cabac=1 / ref=3 / deblock=1:0:0 / analyse=0x3:0x113 / me=hex / subme=7 / psy=1 / psy_rd=1.00:0.00 / mixed_ref=1 / me_range=16 / chroma_me=1 / trellis=1 / 8x8dct=1 / cqm=0 / deadzone=21,11 / fast_pskip=1 / chroma_qp_offset=-2 / threads=12 / sliced_threads=0 / nr=0 / decimate=1 / interlaced=0 / bluray_compat=0 / constrained_intra=0 / bframes=3 / b_pyramid=2 / b_adapt=1 / b_bias=0 / direct=1 / weightb=1 / open_gop=0 / weightp=2 / keyint=250 / keyint_min=23 / scenecut=40 / intra_refresh=0 / rc_lookahead=40 / rc=crf / mbtree=1 / crf=18.0 / qcomp=0.60 / qpmin=0 / qpmax=69 / qpstep=4 / ip_ratio=1.40 / aq=1:1.00
Language : German
Default : No
Forced : No

Audio #1
ID : 2
Format : AC-3
Format/Info : Audio Coding 3
Mode extension : CM (complete main)
Codec ID : A_AC3
Duration : 1h 36mn
Bit rate mode : Constant
Bit rate : 448 Kbps
Channel(s) : 6 channels
Channel positions : Front: L C R, Side: L R, LFE
Sampling rate : 44.1 KHz
Bit depth : 16 bits
Compression mode : Lossy
Stream size : 309 MiB (4%)
Default : Yes
Forced : No

Audio #2
ID : 3
Format : AC-3
Format/Info : Audio Coding 3
Mode extension : CM (complete main)
Codec ID : A_AC3
Duration : 1h 36mn
Bit rate mode : Constant
Bit rate : 640 Kbps
Channel(s) : 6 channels
Channel positions : Front: L C R, Side: L R, LFE
Sampling rate : 48.0 KHz
Bit depth : 16 bits
Compression mode : Lossy
Stream size : 441 MiB (6%)
Title : cnliti-20120303
Language : German
Default : No
Forced : No

Перевод: Любительский (один голос)
Контейнер: mkv
Формат аудио: AC3
Формат видео: x264
Качество видео: BDrip
Размер видео: 1920×1080
формат 3D: Half SideBySide / Горизонтальная анаморфная стереопара
Информация о торренте
Торрент:  Зарегистрирован [06 апр 2012, 20:56] Для скачивания необходимо Зарегистрироваться!



Если Вы уже зарегистрированы, то авторизуйтесь на трекере!
Статус:  
Размер:  7.35 ГБ (7 892 880 937 байт)
Приватный:  Нет (DHT включён)
Хэш:  ea400ceb050a4976c911
4c5dbada8b4a253b5dea
Здоровье:  100%
.torrent скачан:  24
Как тут качать  Правила, основные инструкции, FAQ-и




 Профиль  
 
Показать сообщения за:  Поле сортировки  
Начать новую тему Ответить на тему  [ 1 сообщение ] 


Кто сейчас на трекере

Сейчас этот форум просматривают: нет зарегистрированных пользователей и гости: 1


Вы не можете начинать темы
Вы не можете отвечать на сообщения
Вы не можете редактировать свои сообщения
Вы не можете удалять свои сообщения
Вы не можете добавлять вложения

Найти:


Правообладателям

!ВНИМАНИЕ!
Ресурс не предоставляет электронные версии произведений, а занимается лишь коллекционированием и каталогизацией ссылок, присылаемых и публикуемых на форуме нашими читателями. Если вы являетесь правообладателем какого-либо представленного материала и не желаете чтобы ссылка на него находилась в нашем каталоге, свяжитесь с нами и мы незамедлительно удалим её. Файлы для обмена на трекере предоставлены пользователями сайта, и администрация не несёт ответственности за их содержание. Просьба не заливать файлы, защищенные авторскими правами, а также файлы нелегального содержания!
cron
Вверх страницы
Вниз страницы
ppkBB3cker v.2 © 2008-2011 @ PPK