3d-tracker.ru • Просмотр темы - Марш деревянных солдатиков в 3Д / Babes in Toyland 3D (1934) [BDRip, 1080p] Half OverUnder / Вертикальная анаморфная стереопара

Регистрация Имя: Пароль: Запомнить Забыли пароль?



Правила форума





Начать новую тему Ответить на тему  [ 1 сообщение ] 
Статистика раздачи
Размер: 8.66 ГБ | Зарегистрирован: 16 окт 2014, 17:30 | .torrent скачан: 8
Сиды: 15 [0 байт/сек]    Личи: 6 [0 байт/сек]
Автор Сообщение
 СообщениеДобавлено: 16 окт 2014, 17:31 
Не в сети
гуру
Аватара пользователя
Зарегистрирован: 17 дек 2012, 15:37
Торренты: 912
Раздал: 299.4 ТБ 
Скачал: 7.77 ТБ 
Ратио: 38.527
Спасибо: 4785 / 0
Сообщения: 1215
Комментарии: 587
Откуда: Донецк - это Украина!

Марш деревянных солдатиков / Babes in Toyland (1934) BDRip
«1 and 1/2 hours of laughter!»


Год выпуска: 1934
Жанр: Мюзикл, Фэнтези, Комедия, Семейный

Режиссер: Гас Майнс, Чарли Роджерс
Актеры: Вирджиния Карнс, Шарлотта Генри, Феликс Найт, Флоренс Робертс, Генри Брэндон, Стэн Лорел, Оливер Харди, Эрни Александр, Ричард Александр, Фрэнк Остин

Описание фильма:
Добро пожаловать в сказочную Страну Игрушек, где помимо трех поросят и ученого кота проживают Стэнни Дам и Олли Ди — помощники Мастера игрушек, Наши бестолковые герои всеми способами пытаются помешать несправедливой свадьбе городского плохиша Барнаби с малюткой Бо-Пип.

Перевод: Многоголосый закадровый (профессиональный)



Дата мировой премьеры: 14 декабря 1934

Продолжительность: 01:19:32
Качество видео: BDRip

Видеокодек: MPEG-4 AVC/H.264
Битрейт видео: ~10,4 Мбит/сек
Размер кадра: 1920x1080
Аудио 1: AC3 2.0, 192 kbps, 48 kHz [Русский]
Аудио 2: AC3 2.0, 256 kbps, 48 kHz [Английский]

Общее
Уникальный идентификатор : 254375262862861695292420836675451355629 (0xBF5EE4C20B975E8DAB34F963842C01ED)
Полное имя : F:\my films\March_Wooden_Soldiers_3D.mkv
Формат : Matroska
Версия формата : Version 2
Размер файла : 6,15 Гбайт
Продолжительность : 1 ч. 19 м.
Общий поток : 11,1 Мбит/сек
Название фильма : March_Wooden_Soldiers_3D_Half_O/U
Дата кодирования : UTC 2014-10-13 12:26:00
Программа кодирования : mkvmerge v5.7.0 ('The Whirlwind') built on Aug 7 2012 14:11:40
Библиотека кодирования : libebml v1.2.3 + libmatroska v1.3.0

Видео
Идентификатор : 1
Формат : AVC
Формат/Информация : Advanced Video Codec
Профиль формата : [url=mailto:High@L4.1]High@L4.1[/url]
Параметр CABAC формата : Да
Параметр ReFrames формата : 4 кадра
Идентификатор кодека : V_MPEG4/ISO/AVC
Продолжительность : 1 ч. 19 м.
Битрейт : 10,4 Мбит/сек
Ширина : 1920 пикселей
Высота : 1080 пикселей
Соотношение сторон : 16:9
Режим частоты кадров : Постоянный
Частота кадров : 23,976 кадра/сек
Цветовое пространство : YUV
Субдискретизация насыщенности : 4:2:0
Битовая глубина : 8 бит
Тип развёртки : Прогрессивная
Бит/(Пиксели*Кадры) : 0.209
Размер потока : 5,78 Гбайт (94%)
Заголовок : rip by I/N
Библиотека кодирования : x264 core 128 r2216M 198a7ea
Настройки программы : cabac=1 / ref=4 / deblock=1:-3:-3 / analyse=0x3:0x133 / me=umh / subme=10 / psy=1 / psy_rd=1.00:0.15 / mixed_ref=1 / me_range=32 / chroma_me=1 / trellis=2 / 8x8dct=1 / cqm=0 / deadzone=0,0 / fast_pskip=0 / chroma_qp_offset=-3 / threads=8 / lookahead_threads=1 / sliced_threads=0 / nr=0 / decimate=1 / interlaced=0 / bluray_compat=0 / constrained_intra=0 / bframes=8 / b_pyramid=2 / b_adapt=2 / b_bias=0 / direct=3 / weightb=1 / open_gop=0 / weightp=2 / keyint=230 / keyint_min=23 / scenecut=40 / intra_refresh=0 / rc_lookahead=60 / rc=crf / mbtree=1 / crf=18.0 / qcomp=0.60 / qpmin=0 / qpmax=69 / qpstep=4 / vbv_maxrate=40000 / vbv_bufsize=30000 / crf_max=30.0 / nal_hrd=none / ip_ratio=1.40 / aq=1:1.00
Default : Да
Forced : Нет

Аудио #1
Идентификатор : 2
Формат : AC-3
Формат/Информация : Audio Coding 3
Расширение режима : CM (complete main)
Параметр Endianness формата : Big
Идентификатор кодека : A_AC3
Продолжительность : 1 ч. 19 м.
Вид битрейта : Постоянный
Битрейт : 192 Кбит/сек
Каналы : 2 канала
Расположение каналов : Front: L R
Частота : 48,0 КГц
Битовая глубина : 16 бит
Метод сжатия : С потерями
Размер потока : 109 Мбайт (2%)
Заголовок : Профессиональный (многоголосый закадровый)
Язык : Russian
Default : Да
Forced : Нет

Аудио #2
Идентификатор : 3
Формат : AC-3
Формат/Информация : Audio Coding 3
Расширение режима : CM (complete main)
Параметр Endianness формата : Big
Идентификатор кодека : A_AC3
Продолжительность : 1 ч. 19 м.
Вид битрейта : Постоянный
Битрейт : 256 Кбит/сек
Каналы : 2 канала
Расположение каналов : Front: L R
Частота : 48,0 КГц
Битовая глубина : 16 бит
Метод сжатия : С потерями
Размер потока : 146 Мбайт (2%)
Заголовок : Original
Язык : English
Default : Нет
Forced : Нет

Меню
00:00:00.000 : en:00:00:00.000
00:06:52.454 : en:00:06:52.454
00:10:03.603 : en:00:10:03.603
00:17:44.605 : en:00:17:44.605
00:26:13.822 : en:00:26:13.822
00:29:38.568 : en:00:29:38.568
00:33:23.210 : en:00:33:23.210
00:42:27.420 : en:00:42:27.420
00:49:24.670 : en:00:49:24.670
00:57:00.292 : en:00:57:00.292
01:08:55.173 : en:01:08:55.173
01:13:21.439 : en:01:13:21.439

Информация о торренте
Торрент:  Зарегистрирован [16 окт 2014, 17:30] Для скачивания необходимо Зарегистрироваться!



Если Вы уже зарегистрированы, то авторизуйтесь на трекере!
Статус:  
Размер:  8.66 ГБ (9 295 270 623 байт)
Приватный:  Нет (DHT включён)
Хэш:  235ed6c28bca09131cc3
39711537a657017632d3
Здоровье:  100%
.torrent скачан:  8
Как тут качать  Правила, основные инструкции, FAQ-и




 Профиль  
 
Показать сообщения за:  Поле сортировки  
Начать новую тему Ответить на тему  [ 1 сообщение ] 


Кто сейчас на трекере

Сейчас этот форум просматривают: нет зарегистрированных пользователей и гости: 1


Вы не можете начинать темы
Вы не можете отвечать на сообщения
Вы не можете редактировать свои сообщения
Вы не можете удалять свои сообщения
Вы не можете добавлять вложения

Найти:


Правообладателям

!ВНИМАНИЕ!
Ресурс не предоставляет электронные версии произведений, а занимается лишь коллекционированием и каталогизацией ссылок, присылаемых и публикуемых на форуме нашими читателями. Если вы являетесь правообладателем какого-либо представленного материала и не желаете чтобы ссылка на него находилась в нашем каталоге, свяжитесь с нами и мы незамедлительно удалим её. Файлы для обмена на трекере предоставлены пользователями сайта, и администрация не несёт ответственности за их содержание. Просьба не заливать файлы, защищенные авторскими правами, а также файлы нелегального содержания!
cron
Вверх страницы
Вниз страницы
ppkBB3cker v.2 © 2008-2011 @ PPK