3d-tracker.ru • Просмотр темы - Невероятное путешествие мистера Спивета в 3Д / The Young and Prodigious T.S. Spivet 3D (2013) [BDRip, 1080p] Half SidebySide / Горизонтальная анаморфная стереопара

Регистрация Имя: Пароль: Запомнить Забыли пароль?



Правила форума





Начать новую тему Ответить на тему  [ 1 сообщение ] 
Статистика раздачи
Размер: 8.28 ГБ | Зарегистрирован: 04 мар 2015, 21:21 | .torrent скачан: 3
Сиды: 4 [0 байт/сек]    Личи: 4 [0 байт/сек]
Автор Сообщение
 СообщениеДобавлено: 11 дек 2014, 16:32 
Не в сети
гуру
Аватара пользователя
Зарегистрирован: 17 дек 2012, 15:37
Торренты: 912
Раздал: 299.4 ТБ 
Скачал: 7.77 ТБ 
Ратио: 38.527
Спасибо: 4785 / 0
Сообщения: 1220
Комментарии: 587
Откуда: Донецк - это Украина!

Невероятное путешествие мистера Спивета в 3Д
The Young and Prodigious T.S. Spivet 3D


Год выпуска: 2013
Жанр: Драма, Приключения, Семейный

Описание фильма:
История о приключениях 12-летнего гения по имени Т. С. Спивет, избранные работы которого его приятель рискнул отправить в один известный вашингтонский институт. Неожиданно Спивету звонят из этого института с приглашением приехать забрать престижную награду и заодно выступить с докладом. Мальчик сбегает из дома, но ему нужно проехать через всю страну…

Режиссер: Жан-Пьер Жёне
Актеры: Кайл Кэтлетт, Хелена Бонем Картер, Джуди Дэвис, Каллум Кит, Ренни Ниам Уилсон, Джейкоб Дейвис, Доминик Пинон, Рик Мерсер, Джулиан Ричингс, Ричард Жютра

Продолжительность: 01:45:03
Качество видео: BDRip
Перевод: Дублированный; 2 x Одноголосый закадровый, любительский



Дата мировой премьеры: 28 сентября 2013
Дата российской премьеры: 30 октября 2014

Видеокодек: MPEG-4 AVC/H.264
Битрейт видео: 8915 Кбит/сек
Размер кадра: 1920x800
Аудио 1: AC3 5.1, 448 kbps [Русский - НТВ+]
Аудио 2: AC3 5.1, 448 kbps [Русский - PashaUp]
Аудио 3: AC3 5.1, 448 kbps [Русский - qwerty]
Аудио 4: AC3 5.1, 640 kbps [Английский]
Аудио 5: AC3 5.1, 384 kbps [Французский]

Общее
Уникальный идентификатор : 185052021497645670657080093437593924931 (0x8B37B91310D6977298FD79402C043543)
Полное имя : D:\Download\The Young and Prodigious T.S. Spivet 3D 2013 BDRip 1080p halfSbS [3d-tracker.ru].mkv
Формат : Matroska
Версия формата : Version 2
Размер файла : 8,28 Гбайт
Продолжительность : 1 ч. 45 м.
Общий поток : 11,3 Мбит/сек
Название фильма : 3d-tracker.ru
Дата кодирования : UTC 2015-03-04 15:27:02
Программа кодирования : mkvmerge v4.0.0 ('The Stars were mine') сборка от Jun 6 2010 16:18:42
Библиотека кодирования : libebml v1.0.0 + libmatroska v1.0.0

Видео
Идентификатор : 1
Формат : AVC
Формат/Информация : Advanced Video Codec
Профиль формата : High@L4.1
MultiView_Count : 2
MultiView_Layout : Right Eye
Параметр CABAC формата : Да
Параметр ReFrames формата : 5 кадров
Идентификатор кодека : V_MPEG4/ISO/AVC
Продолжительность : 1 ч. 45 м.
Битрейт : 8915 Кбит/сек
Ширина : 1920 пикселей
Высота : 800 пикселей
Соотношение сторон : 2,40:1
Режим частоты кадров : Постоянный
Частота кадров : 23,976 кадра/сек
Цветовое пространство : YUV
Субдискретизация насыщенности : 4:2:0
Битовая глубина : 8 бит
Тип развёртки : Прогрессивная
Бит/(Пиксели*Кадры) : 0.242
Размер потока : 6,37 Гбайт (77%)
Заголовок : 3d-tracker.ru
Библиотека кодирования : x264 core 142 r2431 ac76440
Настройки программы : cabac=1 / ref=5 / deblock=1:-3:-3 / analyse=0x3:0x113 / me=umh / subme=8 / psy=1 / psy_rd=1.00:0.00 / mixed_ref=1 / me_range=16 / chroma_me=1 / trellis=1 / 8x8dct=1 / cqm=0 / deadzone=21,11 / fast_pskip=1 / chroma_qp_offset=-2 / threads=18 / lookahead_threads=3 / sliced_threads=0 / nr=0 / decimate=1 / interlaced=0 / bluray_compat=0 / constrained_intra=0 / bframes=3 / b_pyramid=2 / b_adapt=2 / b_bias=0 / direct=3 / weightb=1 / open_gop=0 / weightp=2 / keyint=240 / keyint_min=24 / scenecut=40 / intra_refresh=0 / rc_lookahead=50 / rc=2pass / mbtree=1 / bitrate=8915 / ratetol=1.0 / qcomp=0.60 / qpmin=0 / qpmax=69 / qpstep=4 / cplxblur=20.0 / qblur=0.5 / frame-packing=3 / ip_ratio=1.40 / aq=1:1.00
Язык : English
Default : Нет
Forced : Нет

Аудио #1
Идентификатор : 2
Формат : AC-3
Формат/Информация : Audio Coding 3
Расширение режима : CM (complete main)
Параметр Endianness формата : Big
Идентификатор кодека : A_AC3
Продолжительность : 1 ч. 45 м.
Вид битрейта : Постоянный
Битрейт : 448 Кбит/сек
Каналы : 6 каналов
Расположение каналов : Front: L C R, Side: L R, LFE
Частота : 48,0 КГц
Битовая глубина : 16 бит
Метод сжатия : С потерями
Размер потока : 337 Мбайт (4%)
Заголовок : NTV+ [3d-tracker.ru]
Язык : Russian
Default : Нет
Forced : Да

Аудио #2
Идентификатор : 3
Формат : AC-3
Формат/Информация : Audio Coding 3
Расширение режима : CM (complete main)
Параметр Endianness формата : Big
Идентификатор кодека : A_AC3
Продолжительность : 1 ч. 45 м.
Вид битрейта : Постоянный
Битрейт : 448 Кбит/сек
Каналы : 6 каналов
Расположение каналов : Front: L C R, Side: L R, LFE
Частота : 48,0 КГц
Битовая глубина : 16 бит
Метод сжатия : С потерями
Размер потока : 337 Мбайт (4%)
Заголовок : VO [3d-tracker.ru]
Язык : Russian
Default : Нет
Forced : Нет

Аудио #3
Идентификатор : 4
Формат : AC-3
Формат/Информация : Audio Coding 3
Расширение режима : CM (complete main)
Параметр Endianness формата : Big
Идентификатор кодека : A_AC3
Продолжительность : 1 ч. 45 м.
Вид битрейта : Постоянный
Битрейт : 448 Кбит/сек
Каналы : 6 каналов
Расположение каналов : Front: L C R, Side: L R, LFE
Частота : 48,0 КГц
Битовая глубина : 16 бит
Метод сжатия : С потерями
Размер потока : 337 Мбайт (4%)
Заголовок : VO [3d-tracker.ru]
Язык : Russian
Default : Нет
Forced : Нет

Аудио #4
Идентификатор : 5
Формат : AC-3
Формат/Информация : Audio Coding 3
Расширение режима : CM (complete main)
Параметр Endianness формата : Big
Идентификатор кодека : A_AC3
Продолжительность : 1 ч. 45 м.
Вид битрейта : Постоянный
Битрейт : 640 Кбит/сек
Каналы : 6 каналов
Расположение каналов : Front: L C R, Side: L R, LFE
Частота : 48,0 КГц
Битовая глубина : 16 бит
Метод сжатия : С потерями
Размер потока : 481 Мбайт (6%)
Заголовок : English [3d-tracker.ru]
Язык : English
Default : Нет
Forced : Нет

Аудио #5
Идентификатор : 6
Формат : AC-3
Формат/Информация : Audio Coding 3
Расширение режима : CM (complete main)
Параметр Endianness формата : Big
Идентификатор кодека : A_AC3
Продолжительность : 1 ч. 45 м.
Вид битрейта : Постоянный
Битрейт : 384 Кбит/сек
Каналы : 6 каналов
Расположение каналов : Front: L C R, Side: L R, LFE
Частота : 48,0 КГц
Битовая глубина : 16 бит
Метод сжатия : С потерями
Размер потока : 289 Мбайт (3%)
Заголовок : Original [3d-tracker.ru]
Язык : French
Default : Нет
Forced : Нет

Текст
Идентификатор : 7
Формат : UTF-8
Идентификатор кодека : S_TEXT/UTF8
Идентификатор кодека/Информация : UTF-8 Plain Text
Заголовок : 3d-tracker.ru
Язык : Russian
Default : Нет
Forced : Нет

Меню
00:00:00.000 : en:1 - 0:00:00
00:05:48.931 : en:2 - 0:05:48
00:14:55.728 : en:3 - 0:14:55
00:20:51.500 : en:4 - 0:20:51
00:29:59.672 : en:5 - 0:29:59
00:38:31.726 : en:6 - 0:38:31
00:46:13.812 : en:7 - 0:46:13
00:55:29.034 : en:8 - 0:55:29
01:06:40.996 : en:9 - 1:06:40
01:13:58.100 : en:10 - 1:13:58
01:26:25.471 : en:11 - 1:26:25
01:36:23.486 : en:12 - 1:36:23
01:45:03.296 : en:13 - 1:45:03


Информация о торренте
Торрент:  Зарегистрирован [04 мар 2015, 21:21] Для скачивания необходимо Зарегистрироваться!



Если Вы уже зарегистрированы, то авторизуйтесь на трекере!
Статус:  
Размер:  8.28 ГБ (8 887 259 111 байт)
Приватный:  Нет (DHT включён)
Хэш:  6abc4c86451c5cc06917
bb512b0e404bab656a43
Здоровье:  100%
.torrent скачан:  3
Как тут качать  Правила, основные инструкции, FAQ-и




 Профиль  
 
Показать сообщения за:  Поле сортировки  
Начать новую тему Ответить на тему  [ 1 сообщение ] 


Кто сейчас на трекере

Сейчас этот форум просматривают: нет зарегистрированных пользователей и гости: 3


Вы не можете начинать темы
Вы не можете отвечать на сообщения
Вы не можете редактировать свои сообщения
Вы не можете удалять свои сообщения
Вы не можете добавлять вложения

Найти:


Правообладателям

!ВНИМАНИЕ!
Ресурс не предоставляет электронные версии произведений, а занимается лишь коллекционированием и каталогизацией ссылок, присылаемых и публикуемых на форуме нашими читателями. Если вы являетесь правообладателем какого-либо представленного материала и не желаете чтобы ссылка на него находилась в нашем каталоге, свяжитесь с нами и мы незамедлительно удалим её. Файлы для обмена на трекере предоставлены пользователями сайта, и администрация не несёт ответственности за их содержание. Просьба не заливать файлы, защищенные авторскими правами, а также файлы нелегального содержания!
cron
Вверх страницы
Вниз страницы
ppkBB3cker v.2 © 2008-2011 @ PPK