3d-tracker.ru • Просмотр темы - Илья Муромец / 3D (1956) [1080p, Half Side-By-Side / Горизонтальная анаморфная пара]

Регистрация Имя: Пароль: Запомнить Забыли пароль?



Правила форума





Начать новую тему Ответить на тему  [ Сообщений: 5 ] 
Статистика раздачи
Размер: 6.17 ГБ | Зарегистрирован: 08 июл 2016, 09:56 | .torrent скачан: 6
Сиды: 2 [0 байт/сек]    Личи: 0 [0 байт/сек]
Автор Сообщение
 СообщениеДобавлено: 08 июл 2016, 09:56 
Не в сети
Бывалый
Зарегистрирован: 07 июн 2014, 08:13
Торренты: 52
Раздал: 1.78 ТБ 
Скачал: 1008.98 ГБ 
Ратио: 1.808
Спасибо: 219 / 532
Сообщения: 149
Комментарии: 159

Оригинальное название: Илья Муромец
Год выпуска: 1956
Жанр: Сказка, детский, семейный
Выпущено: СССР, Мосфильм

Режиссер: Александр Птушко
В ролях: Борис Андреев, Андрей Абрикосов, Наталия Медведева (I), Нинель Мышкова, Александр Шворин, Сергей Мартинсон, Георгий Дёмин, Сергей Столяров, Михаил Пуговкин, Владимир Соловьёв (I), Ия Арепина, Владимир Тягушев, Николай Гладков, Шукур Бурханов, Садыкбек Джаманов, Муратбек Рыскулов, Шамши Тюменбаев, Сергей Троицкий
О фильме: Жил да был на Руси в стародавние времена молодец по прозванию Илья Муромец. Дал ему Бог стать богатырскую, да приковал навеки сиднем сидеть. Но пришли к нему калики перехожие, дали испить соку "встань-травы", и прибавилось у Ильи силы-крепости. Взял он меч-кладенец и поскакал на своем могучем коне защищать русскую землю от ворогов. И помощники Муромцу в этом святом деле сыскались, такие же, как он, богатыри: Добрыня Никитич и Алеша Попович. Ибо Русь-земля не пуста стоит!

Размер: 6.17 ГБ
Продолжительность: 01:26:25
Язык: Русский

Просмотр фильма в 3D и 2D на 3DTV

Качество: (1080р)
Видео: AVC, 9827 Кбит/с, 24,000 fps
Аудио: Русский AC3, 2 ch, 192 Кбит/с

Формат 3D: Half SideBySide / Горизонтальная анаморфная стереопара
Порядок ракурсов: Левый-первый
Формат : Matroska
Версия формата : Version 4 / Version 2
Размер файла : 6,17 Гбайт
Продолжительность : 1 ч. 26 м.
Общий поток : 10,2 Мбит/сек
Программа кодирования : mkvmerge v8.3.0 ('Over the Horizon') 64bit
Библиотека кодирования : libebml v1.3.1 + libmatroska v1.4.2
DURATION : 01:26:24.959000000
Видео
Идентификатор : 1
Формат : AVC
Формат/Информация : Advanced Video Codec
Профиль формата : High@L4.0
Параметр CABAC формата : Да
Параметр ReFrames формата : 4 кадра
Идентификатор кодека : V_MPEG4/ISO/AVC
Продолжительность : 1 ч. 26 м.
Битрейт : 9827 Кбит/сек
Ширина : 1920 пикселей
Высота : 1080 пикселей
Соотношение сторон : 16:9
Режим частоты кадров : Постоянный
Частота кадров : 24,000 кадра/сек
Цветовое пространство : YUV
Субдискретизация насыщенности : 4:2:0
Битовая глубина : 8 бит
Тип развёртки : Прогрессивная
Бит/(Пиксели*Кадры) : 0.197
Размер потока : 5,93 Гбайт (96%)
Язык : English
Default : Да
Forced : Нет
Аудио
Идентификатор : 2
Формат : AC-3
Формат/Информация : Audio Coding 3
Расширение режима : CM (complete main)
Параметр Endianness формата : Big
Идентификатор кодека : A_AC3
Продолжительность : 1 ч. 26 м.
Вид битрейта : Постоянный
Битрейт : 192 Кбит/сек
Каналы : 2 канала
Расположение каналов : Front: L R
Частота : 48,0 КГц
Битовая глубина : 16 бит
Размер потока : 119 Мбайт (2%)
Заголовок : 2 ch, 192 kb/s
Язык : Russian
Default : Да
Forced : Нет

Информация о торренте
Торрент:  Зарегистрирован [08 июл 2016, 09:56] Для скачивания необходимо Зарегистрироваться!



Если Вы уже зарегистрированы, то авторизуйтесь на трекере!
Статус:   изменил Soldat (08 июл 2016, 10:27)
Размер:  6.17 ГБ (6 625 286 682 байт)
Приватный:  Нет (DHT включён)
Хэш:  e5a5d3be3c69c6ab5174
099cd98e46cf4ad74871
Здоровье:  100%
.torrent скачан:  6
Как тут качать  Правила, основные инструкции, FAQ-и




 Профиль  
 
 СообщениеДобавлено: 08 июл 2016, 10:26 
Не в сети
Супермодератор
Аватара пользователя
Зарегистрирован: 15 апр 2014, 21:21
Торренты: 427
Раздал: 30.04 ТБ 
Скачал: 1.83 ТБ 
Ратио: 27.484
Спасибо: 2392 / 157
Сообщения: 576
Комментарии: 251
Откуда: РОССИЯ, ЦФО
Я предполагаю, что будут проблемы с правообладателями- и релиз будет убран с треккера!
Так что - качайте кому надо быстрее!
Релиз отличный!

_________________


 Профиль  
 
 СообщениеДобавлено: 08 июл 2016, 21:33 
Не в сети
заглянувший
Аватара пользователя
Зарегистрирован: 03 мар 2016, 15:54
Торренты: 0
Раздал: 597.63 ГБ 
Скачал: 385.15 ГБ 
Ратио: 1.552
Спасибо: 0 / 98
Сообщения: 4
Комментарии: 7
Откуда: москва
мультики это хорошо но хотелось бы увидеть фильм в 3д свадьба в малиновке хороший фильм думаю многим бы пришолся бы по нраву.. :bra_vo: :co_ol:


 Профиль  
 
 СообщениеДобавлено: 08 июл 2016, 22:20 
Не в сети
Бывалый
Зарегистрирован: 15 май 2014, 15:05
Торренты: 37
Раздал: 2.93 ТБ 
Скачал: 1.24 ТБ 
Ратио: 2.362
Спасибо: 211 / 604
Сообщения: 128
Комментарии: 123
Это же не мультик!А художественный фильм!Сказка!


 Профиль  
 
 СообщениеДобавлено: 11 июл 2016, 12:33 
Не в сети
Бывалый
Зарегистрирован: 15 май 2014, 15:05
Торренты: 37
Раздал: 2.93 ТБ 
Скачал: 1.24 ТБ 
Ратио: 2.362
Спасибо: 211 / 604
Сообщения: 128
Комментарии: 123
ogorod5501 писал(а):
хотелось бы увидеть фильм в 3д свадьба в малиновке

http://3d-tracker.ru/viewtopic.php?t=2203&f=31


 Профиль  
 
Показать сообщения за:  Поле сортировки  
Начать новую тему Ответить на тему  [ Сообщений: 5 ] 


Кто сейчас на трекере

Сейчас этот форум просматривают: нет зарегистрированных пользователей и гости: 1


Вы не можете начинать темы
Вы не можете отвечать на сообщения
Вы не можете редактировать свои сообщения
Вы не можете удалять свои сообщения
Вы не можете добавлять вложения

Найти:


Правообладателям

!ВНИМАНИЕ!
Ресурс не предоставляет электронные версии произведений, а занимается лишь коллекционированием и каталогизацией ссылок, присылаемых и публикуемых на форуме нашими читателями. Если вы являетесь правообладателем какого-либо представленного материала и не желаете чтобы ссылка на него находилась в нашем каталоге, свяжитесь с нами и мы незамедлительно удалим её. Файлы для обмена на трекере предоставлены пользователями сайта, и администрация не несёт ответственности за их содержание. Просьба не заливать файлы, защищенные авторскими правами, а также файлы нелегального содержания!
cron
Вверх страницы
Вниз страницы
ppkBB3cker v.2 © 2008-2011 @ PPK