3d-tracker.ru • Просмотр темы - Большой и добрый великан в 3Д / The BFG 3D (2016) [BDRip-AVC by SOLdAt, 720p, Half OverUnder / Вертикальная анаморфная стереопара]

Регистрация Имя: Пароль: Запомнить Забыли пароль?



Правила форума





Начать новую тему Ответить на тему  [ 1 сообщение ] 
Статистика раздачи
Размер: 4.67 ГБ | Зарегистрирован: 08 дек 2016, 13:59 | .torrent скачан: 3
Сиды: 1 [0 байт/сек]    Личи: 5 [0 байт/сек]
Автор Сообщение
 СообщениеДобавлено: 08 дек 2016, 13:59 
Не в сети
Супермодератор
Аватара пользователя
Зарегистрирован: 15 апр 2014, 21:21
Торренты: 369
Раздал: 28.83 ТБ 
Скачал: 1.83 ТБ 
Ратио: 26.826
Спасибо: 1969 / 112
Сообщения: 520
Комментарии: 233
Откуда: РОССИЯ, ЦФО

Название: Большой и добрый великан
Оригинальное название: The BFG
Год выпуска: 2016
Жанр: Фэнтези, экранизация, приключения, семейный
Выпущено: Великобритания, Канада, США, Amblin Entertainment, DreamWorks SKG, Reliance Entertainment

Режиссер: Стивен Спилберг
В ролях: Марк Райлэнс, Руби Барнхилл, Пенелопа Уилтон, Джемейн Клемент, Ребекка Холл, Рейф Сполл, Билл Хейдер, Оулавюр Дарри Оулафссон, Адам Годли, Майкл Адамуэйт
О фильме: В центре истории девочка по имени Софи, которая не смогла заснуть до полуночи и в окошко увидела огромного великана, который подходил к соседним домам и начинал дуть в окна спален. В полном соответствии со старинными поверьями и детскими страшилками, великан увидел Софи и унес к себе домой, в страну великанов. Как оказалось, он в этой самой стране был единственным добрым великаном: действуя в обстановке строжайшей секретности, он коллекционировал хорошие сны, которые по ночам раздавал детям. Уши у него устроены таким образом, что он слышит, что и о чем снится ребятам, и никогда не позволяет им видеть кошмары.

Качество: BDRip (720p) by SOLdAt
Видео: MPEG-4 AVC, 5777 Кбит/с, 1280x720, 23,976 кадра/сек
Аудио: Русский AC3, 6 ch, 384 Кбит/с
Размер: 4.67 ГБ
Продолжительность: 01:48:29
Перевод: Дублированный [iTunes]

Формат 3D: Half OverUnder / Вертикальная анаморфная стереопара (16:9)
Порядок ракурсов: верхний ракурс первый.
1. Вырезаны заключительные титры
2. Убрана английская дорожка
3. Убраны субтитры
4. Исходный файл обрезан слева и справа до пропорций 16:9

Полное имя : E:\AV\3D.BFG.2016.720p.Zoom.hou.mkv
Формат : Matroska
Версия формата : Version 4 / Version 2
Размер файла : 4,67 Гбайт
Продолжительность : 1 ч. 48 м.
Общий поток : 6168 Кбит/сек
Название фильма : THE.BFG.3D.Title0.by_SOLdAt
Дата кодирования : UTC 2016-12-08
Программа кодирования : mkvmerge v7.1.0 ('Good Love') 64bit
Библиотека кодирования : libebml v1.3.0 + libmatroska v1.4.1
DURATION : 01:48:28.628000000

Видео
Идентификатор : 1
Формат : AVC
Формат/Информация : Advanced Video Codec
Профиль формата : Main@L3.1
Параметр CABAC формата : Да
Параметр ReFrames формата : 4 кадра
Идентификатор кодека : V_MPEG4/ISO/AVC
Продолжительность : 1 ч. 48 м.
Битрейт : 5777 Кбит/сек
Ширина : 1280 пикселей
Высота : 720 пикселей
Соотношение сторон : 16:9
Режим частоты кадров : Постоянный
Частота кадров : 23,976 кадра/сек
Цветовое пространство : YUV
Субдискретизация насыщенности : 4:2:0
Битовая глубина : 8 бит
Тип развёртки : Прогрессивная
Бит/(Пиксели*Кадры) : 0.261
Размер потока : 4,29 Гбайт (92%)
Заголовок : 720p, Zoom HOU
Библиотека кодирования : x264 core 139 rmdrs
Язык : English
Default : Да
Forced : Нет

Аудио
Идентификатор : 2
Формат : AC-3
Формат/Информация : Audio Coding 3
Расширение режима : CM (complete main)
Параметр Endianness формата : Big
Идентификатор кодека : A_AC3
Продолжительность : 1 ч. 48 м.
Вид битрейта : Постоянный
Битрейт : 384 Кбит/сек
Каналы : 6 каналов
Расположение каналов : Front: L C R, Side: L R, LFE
Частота : 48,0 КГц
Битовая глубина : 16 бит
Размер потока : 298 Мбайт (6%)
Заголовок : 6 ch, 384 kb/s
Язык : Russian
Default : Да
Forced : Нет






Информация о торренте
Торрент:  Зарегистрирован [08 дек 2016, 13:59] Для скачивания необходимо Зарегистрироваться!



Если Вы уже зарегистрированы, то авторизуйтесь на трекере!
Статус:  
Размер:  4.67 ГБ (5 018 205 744 байт)
Приватный:  Нет (DHT включён)
Хэш:  d031040f47d7070907e7
e17f246e4899194175ff
Здоровье:  20%
.torrent скачан:  3
Как тут качать  Правила, основные инструкции, FAQ-и



_________________


 Профиль  
 
Показать сообщения за:  Поле сортировки  
Начать новую тему Ответить на тему  [ 1 сообщение ] 


Кто сейчас на трекере

Сейчас этот форум просматривают: нет зарегистрированных пользователей и гости: 2


Вы не можете начинать темы
Вы не можете отвечать на сообщения
Вы не можете редактировать свои сообщения
Вы не можете удалять свои сообщения
Вы не можете добавлять вложения

Найти:


Правообладателям

!ВНИМАНИЕ!
Ресурс не предоставляет электронные версии произведений, а занимается лишь коллекционированием и каталогизацией ссылок, присылаемых и публикуемых на форуме нашими читателями. Если вы являетесь правообладателем какого-либо представленного материала и не желаете чтобы ссылка на него находилась в нашем каталоге, свяжитесь с нами и мы незамедлительно удалим её. Файлы для обмена на трекере предоставлены пользователями сайта, и администрация не несёт ответственности за их содержание. Просьба не заливать файлы, защищенные авторскими правами, а также файлы нелегального содержания!
cron
Вверх страницы
Вниз страницы
ppkBB3cker v.2 © 2008-2011 @ PPK