3d-tracker.ru • Просмотр темы - Панч и Джуди Шоу - Часть 4 - Рождество с дедушкой Францем / Kasperle Theater – Teil 4: Weihnachten mit Opa Franz [Half OverUnder / Вертикальная анаморфная стереопара]

Регистрация Имя: Пароль: Запомнить Забыли пароль?



Правила форума





Начать новую тему Ответить на тему  [ Сообщений: 4 ] 
Статистика раздачи
Размер: 5.95 ГБ | Зарегистрирован: 01 янв 2013, 19:19 | .torrent скачан: 3
Сиды: 0 [0 байт/сек]    Личи: 4 [0 байт/сек]
Автор Сообщение
 СообщениеДобавлено: 01 янв 2013, 19:19 
Не в сети
гуру
Аватара пользователя
Зарегистрирован: 02 янв 2012, 21:30
Торренты: 180
Раздал: 36.49 ТБ 
Скачал: 9.8 ТБ 
Ратио: 3.722
Спасибо: 3348 / 73
Сообщения: 276
Комментарии: 95
Откуда: Рязань

Оригинальное название: Kasperle Theater – Teil 4: Weihnachten mit Opa Franz
Страна: Германия | Ascot Elite Home Entertainment
Продолжительность: 00:42:10
Дата выхода: 2012
Жанр: семейный
О фильме: Внук отправляется к дедушке на Рождество, чтобы провести с ним несколько счастливых мгновений, потому что никто не должен быть одиноким в Рождество. И это будет особенное Рождество - в сарае внук вместе с котом уже приготовили дедушке сюрприз...



MediaInfo: Общее
Уникальный идентификатор : 198723793117485226575822507432431845906 (0x9580CF753DE6932AA30AE0A0B7140212)
Полное имя : D:\торент\Kasperle_Vol.4.edis.3d-tracker.ru.mkv
Формат : Matroska
Версия формата : Version 2
Размер файла : 5,95 Гбайт
Продолжительность : 42 м.
Режим общего битрейта : Переменный
Общий поток : 20,2 Мбит/сек
Название фильма : Kasperle Vol.4.edis.3d-tracker.ru.Bluray3DRip
Дата кодирования : UTC 2013-01-01 10:18:30
Программа кодирования : mkvmerge v4.2.0 ('3d-tracker') сборка от Jul 28 2010 18:38:23
Библиотека кодирования : libebml v1.0.0 + libmatroska v1.0.0

Видео
Идентификатор : 1
Формат : AVC
Формат/Информация : Advanced Video Codec
Профиль формата : High@L4.1
Параметр CABAC формата : Да
Параметр ReFrames формата : 2 кадра
Идентификатор кодека : V_MPEG4/ISO/AVC
Продолжительность : 42 м.
Вид битрейта : Переменный
Битрейт : 19,4 Мбит/сек
Максимальный битрейт : 29,5 Мбит/сек
Ширина : 1920 пикселей
Высота : 1080 пикселей
Соотношение сторон : 16:9
Частота кадров : 23,976 кадра/сек
Цветовое пространство : YUV
Субдискретизация насыщенности : 4:2:0
Битовая глубина : 8 бит
Тип развёртки : Прогрессивная
Бит/(Пиксели*Кадры) : 0.389
Размер потока : 5,70 Гбайт (96%)
Заголовок : edis.3d-tracker.ru
Default : Да
Forced : Нет

Аудио
Идентификатор : 2
Формат : AC-3
Формат/Информация : Audio Coding 3
Расширение режима : CM (complete main)
Параметр Endianness формата : Big
Идентификатор кодека : A_AC3
Продолжительность : 42 м.
Вид битрейта : Постоянный
Битрейт : 448 Кбит/сек
Каналы : 6 каналов
Расположение каналов : Front: L C R, Side: L R, LFE
Частота : 48,0 КГц
Битовая глубина : 16 бит
Метод сжатия : С потерями
Размер потока : 135 Мбайт (2%)
Заголовок : edis.3d-tracker.ru
Default : Да
Forced : Нет

Меню
00:00:00.000 : en:(01)00:00:00:000

Перевод: Оригинал
Контейнер: mkv
Формат аудио: AC3
Язык 1: немецкий
Формат видео: x264
Качество видео: BDrip
Размер видео: 1920×1080
формат 3D: Half OverUnder / Вертикальная анаморфная стереопара
Информация о торренте
Торрент:  Зарегистрирован [01 янв 2013, 19:19] Для скачивания необходимо Зарегистрироваться!



Если Вы уже зарегистрированы, то авторизуйтесь на трекере!
Статус:  
Размер:  5.95 ГБ (6 388 625 583 байт)
Приватный:  Нет (DHT включён)
Хэш:  ebdc4fffb27dfe4a319e
62ef2beda4482211e7ab
Здоровье:  ???%
.torrent скачан:  3
Как тут качать  Правила, основные инструкции, FAQ-и



_________________

Мои раздачи


 Профиль  
 
 СообщениеДобавлено: 06 янв 2013, 13:50 
Не в сети
заглянувший
Аватара пользователя
Зарегистрирован: 23 дек 2012, 18:14
Торренты: 5
Раздал: 67.15 ГБ 
Скачал: 25.04 ГБ 
Ратио: 2.681
Спасибо: 76 / 8
Сообщения: 8
Комментарии: 2
Откуда: http://pirat.ca/
Насколько я могу перевести, приблизительно так:
Описание: Внук отправляется к дедушке на Рождество, чтобы провести с ним несколько счастливых мгновений, потому что никто не должен быть одиноким в Рождество. И это будет особенное Рождество - в сарае внук вместе с котом уже приготовили дедушке сюрприз...


 Профиль  
 
 СообщениеДобавлено: 06 янв 2013, 13:52 
Не в сети
гуру
Аватара пользователя
Зарегистрирован: 02 янв 2012, 21:30
Торренты: 180
Раздал: 36.49 ТБ 
Скачал: 9.8 ТБ 
Ратио: 3.722
Спасибо: 3348 / 73
Сообщения: 276
Комментарии: 95
Откуда: Рязань
где-то так, спасибо.

_________________

Мои раздачи


 Профиль  
 
 СообщениеДобавлено: 10 янв 2013, 18:11 
Не в сети
заглянувший
Зарегистрирован: 19 авг 2012, 00:45
Торренты: 0
Раздал: 517.06 ГБ 
Скачал: 488.77 ГБ 
Ратио: 1.058
Спасибо: 0 / 0
Сообщения: 1
Комментарии: 1
а закачка будет а то никого нет :ny_tik:


 Профиль  
 
Показать сообщения за:  Поле сортировки  
Начать новую тему Ответить на тему  [ Сообщений: 4 ] 


Кто сейчас на трекере

Сейчас этот форум просматривают: нет зарегистрированных пользователей и гости: 1


Вы не можете начинать темы
Вы не можете отвечать на сообщения
Вы не можете редактировать свои сообщения
Вы не можете удалять свои сообщения
Вы не можете добавлять вложения

Найти:
 cron

Правообладателям

!ВНИМАНИЕ!
Ресурс не предоставляет электронные версии произведений, а занимается лишь коллекционированием и каталогизацией ссылок, присылаемых и публикуемых на форуме нашими читателями. Если вы являетесь правообладателем какого-либо представленного материала и не желаете чтобы ссылка на него находилась в нашем каталоге, свяжитесь с нами и мы незамедлительно удалим её. Файлы для обмена на трекере предоставлены пользователями сайта, и администрация не несёт ответственности за их содержание. Просьба не заливать файлы, защищенные авторскими правами, а также файлы нелегального содержания!
cron
Вверх страницы
Вниз страницы
ppkBB3cker v.2 © 2008-2011 @ PPK