3d-tracker.ru • Просмотр темы - Дети шпионов 3: Игра окончена 3d

Регистрация Имя: Пароль: Запомнить Забыли пароль?



Правила форума





Начать новую тему Ответить на тему  [ Сообщений: 2 ] 
Статистика раздачи
Размер: 9.11 ГБ | Зарегистрирован: 18 мар 2012, 00:55 | .torrent скачан: 21
Сиды: 8 [0 байт/сек]    Личи: 5 [0 байт/сек]
Автор Сообщение
 СообщениеДобавлено: 18 мар 2012, 00:57 
Не в сети
VIP аплоадер
Аватара пользователя
Зарегистрирован: 13 мар 2012, 16:36
Торренты: 184
Раздал: 52.98 ТБ 
Скачал: 30.1 ТБ 
Ратио: 1.760
Спасибо: 1899 / 2
Сообщения: 167
Комментарии: 32
Откуда: Челны

Оригинальное название: Spy Kids 3-D: Game Over 3d
Год выпуска: 2003
Страна: США (Dimension Films, Troublemaker Studios)
Жанр: Фантастика, Приключения, Комедия, Семейный
Продолжительность: 01:24:22
Перевод: Профессиональный (дублированный)
Русские субтитры: нет
Режиссер: Роберт Родригес / Robert RodriguezРоли исполняли (Дублировали):Джуни Кортез - Дэрил Сабара (Татьяна Весёлкина)
Камен Кортез - Алекса Вега (Лина Иванова)
Дедушка - Рикардо Монтальбан (Василий Бочкарев)
Кибер Гений - Сильвестр Сталлоне (Владимир Антоник)
Франческа Гигглс - Сальма Хайек (Нина Тобилевич)
Доннагон Гигглс - Майк Джадж (Никита Прозоровский)
Гари Гигглс - Мэтью О’Лири (Андрей Бархударов)
Герти Гигглс - Эмили Осмент
Арнольд - Райан Пинкстон (Ольга Зубкова)
Рез - Роберт Вито (Михаил Тихонов)
Бабушка - Холланд Тейлор (Ольга Сирина)
Грегорио Кортез - Антонио Бандерас (Денис Беспалый)
Ингрид Кортез - Карла Гуджино (Лариса Некипелова)
Феликс Гамм - Чич Марин (Александр Груздев)
Мачете - Дэнни Трехо (Дальвин Щербаков)
Феган Флуп - Алан Камминг (Андрей Бархударов)
Александр Миньон - Тони Шэлуб (Дмитрий Филимонов)
Ромеро - Стив Бушеми (Вячеслав Баранов)
Динки Винкс - Билл Пэкстон (Алексей Колган)
Девлин - Джордж Клуни (Олег Куценко)
Парень - Элайджа Вуд (Александр Морозов)
.............................
Описание: Шпионы становятся старше, но и враги — все сильнее и изощреннее. Теперь им предстоит вступить в схватку с самим Сильвестром Сталлоне, чтобы спасти не только свои жизни, но и целый мир…
Несовершеннолетние агенты Джуни и Кармен Кортез отправляются на выполнение нового задания. На этот раз их ждет путешествие по виртуальному миру 3D видеоигры, разработанной для того, чтобы существа, населяющие ее явились в реальный мир.
Дочь шпионов Кармен попалась в сети компьютерной игры, созданной зловещим Мастером Игрушек. Теперь ее брат должен спасти сестру, а заодно и весь мир. И помогать ему в этом будут его родители!
Доп. информация: 3Д - глубокое. Примерно 00:01:58 - 00:11:32 идёт в 2Д (можно смотреть и без очков).
При просмотре отрывками заметил кратковременные 3Д-ляпы (смотрите под спойлером). Точно те же ляпы были и на старой деанаглиф-версии.

Проверено на встроенном плейере ТВ Samsung UE-C7000


~ 01:10:37 - 01:10:43 - перепутаны ракурсы;
~ 01:10:46 - 01:10:48 - перепутаны ракурсы;
~ 01:11:01 - на правом роботе перспектива в обратную сторону (при этом на левом - всё правильно);
~ 01:11:48 - робот "парИт" над мостовой;
~ 01:14:56 - 01:14:59 - перепутаны ракурсы;
~ 01:15:55 - 01:15:59 - временнОй рассинхрон ракурсов

General
UniqueID : 207751580128882965131785448972153478892 (0x9C4B7FB8FC2CD2C2B728E2A449B35EEC)
Complete name : F:\Downloads\SpyKids3-D.GameOver(3D)2003.halfOU(ash61).mkv
Format : Matroska
File size : 9.11 GiB
Duration : 1h 24mn
Overall bit rate : 15.5 Mbps
Movie name : Spy Kids 3-D: Game Over (3D) 2003 (ash61)
Encoded date : UTC 2012-03-17 14:36:32
Writing application : mkvmerge v3.4.0 ('Rapunzel') сборка от May 15 2010 09:38:20
Writing library : libebml v0.8.0 + libmatroska v0.9.0
Video
ID : 1
Format : AVC
Format/Info : Advanced Video Codec
Format profile : High@L4.1
Format settings, CABAC : Yes
Format settings, ReFrames : 4 frames
Codec ID : V_MPEG4/ISO/AVC
Duration : 1h 24mn
Bit rate : 14.1 Mbps
Width : 1 920 pixels
Height : 1 080 pixels
Display aspect ratio : 16:9
Frame rate : 23.976 fps
Color space : YUV
Chroma subsampling : 4:2:0
Bit depth : 8 bits
Scan type : Progressive
Bits/(Pixel*Frame) : 0.284
Stream size : 8.33 GiB (91%)
Title : BDrip by ash61
Writing library : x264 core 119 r2106 07efeb4
Encoding settings : cabac=1 / ref=4 / deblock=1:-3:-3 / analyse=0x3:0x113 / me=umh / subme=9 / psy=1 / psy_rd=1.00:0.15 / mixed_ref=1 / me_range=16 / chroma_me=1 / trellis=2 / 8x8dct=1 / cqm=0 / deadzone=21,11 / fast_pskip=1 / chroma_qp_offset=-3 / threads=3 / sliced_threads=0 / nr=0 / decimate=1 / interlaced=0 / bluray_compat=0 / constrained_intra=0 / bframes=6 / b_pyramid=2 / b_adapt=2 / b_bias=0 / direct=3 / weightb=1 / open_gop=0 / weightp=2 / keyint=250 / keyint_min=23 / scenecut=40 / intra_refresh=0 / rc_lookahead=60 / rc=crf / mbtree=1 / crf=17.5 / qcomp=0.70 / qpmin=0 / qpmax=69 / qpstep=4 / vbv_maxrate=40000 / vbv_bufsize=40000 / crf_max=0.0 / nal_hrd=none / ip_ratio=1.40 / aq=1:0.70
Audio #1
ID : 2
Format : AC-3
Format/Info : Audio Coding 3
Mode extension : CM (complete main)
Codec ID : A_AC3
Duration : 1h 24mn
Bit rate mode : Constant
Bit rate : 384 Kbps
Channel(s) : 6 channels
Channel positions : Front: L C R, Side: L R, LFE
Sampling rate : 48.0 KHz
Bit depth : 16 bits
Compression mode : Lossy
Video delay : 32ms
Stream size : 232 MiB (2%)
Language : Russian
Audio #2
ID : 3
Format : AC-3
Format/Info : Audio Coding 3
Mode extension : CM (complete main)
Codec ID : A_AC3
Duration : 1h 24mn
Bit rate mode : Constant
Bit rate : 640 Kbps
Channel(s) : 6 channels
Channel positions : Front: L C R, Side: L R, LFE
Sampling rate : 48.0 KHz
Bit depth : 16 bits
Compression mode : Lossy
Stream size : 386 MiB (4%)
Title : Original
Language : English
Menu
00:00:00.000 : :1
00:08:27.465 : :2
00:14:12.894 : :3
00:21:09.685 : :4
00:28:46.475 : :5
00:36:28.103 : :6
00:42:52.195 : :7
00:50:45.292 : :8
00:57:06.048 : :9
01:03:57.000 : :10
01:09:57.944 : :11
01:17:11.752 : :12



Качество: BDrip
Контейнер: MKV
Формат 3D: Half OverUnder / Вертикальная анаморфная стереопара
Порядок ракурсов: левый ракурс первый
Видео кодек: x264
Аудио кодек: AC3
Видео: AVC / 1920х1080p / 23,976 fps / 14.1 Mbps
Аудио#1: Русский / AC3 / 48 KHz / 5.1 ch / 384 Kbps
Аудио#2: Английский / AC3 / 48 KHz / 5.1 ch / 640 Kbps
Субтитры: Отсутствуют
Информация о торренте
Торрент:  Зарегистрирован [18 мар 2012, 00:55] Для скачивания необходимо Зарегистрироваться!



Если Вы уже зарегистрированы, то авторизуйтесь на трекере!
Статус:   изменил edis (18 мар 2012, 08:56)
Размер:  9.11 ГБ (9 782 038 711 байт)
Приватный:  Нет (DHT включён)
Хэш:  6d5faa58c8484eb9b8d4
9ca3a624a8581f13a9c4
Здоровье:  100%
.torrent скачан:  21
Как тут качать  Правила, основные инструкции, FAQ-и



_________________
Мои релизы на трекере
"Свобода личности заканчивается там, где начинается свобода другой личности"
"Чем больше я узнаю людей, тем больше я люблю собак"


 Профиль  
 
 СообщениеДобавлено: 09 окт 2014, 20:08 
Не в сети
заглянувший
Зарегистрирован: 31 авг 2014, 21:07
Торренты: 0
Раздал: 10.38 ГБ 
Скачал: 44.54 ГБ 
Ратио: 0.233
Спасибо: 0 / 1
Сообщения: 1
Комментарии: 1
:-ok-:


 Профиль  
 
Показать сообщения за:  Поле сортировки  
Начать новую тему Ответить на тему  [ Сообщений: 2 ] 


Кто сейчас на трекере

Сейчас этот форум просматривают: нет зарегистрированных пользователей и гости: 5


Вы не можете начинать темы
Вы не можете отвечать на сообщения
Вы не можете редактировать свои сообщения
Вы не можете удалять свои сообщения
Вы не можете добавлять вложения

Найти:


Правообладателям

!ВНИМАНИЕ!
Ресурс не предоставляет электронные версии произведений, а занимается лишь коллекционированием и каталогизацией ссылок, присылаемых и публикуемых на форуме нашими читателями. Если вы являетесь правообладателем какого-либо представленного материала и не желаете чтобы ссылка на него находилась в нашем каталоге, свяжитесь с нами и мы незамедлительно удалим её. Файлы для обмена на трекере предоставлены пользователями сайта, и администрация не несёт ответственности за их содержание. Просьба не заливать файлы, защищенные авторскими правами, а также файлы нелегального содержания!
cron
Вверх страницы
Вниз страницы
ppkBB3cker v.2 © 2008-2011 @ PPK