3d-tracker.ru • Просмотр темы - Comin' at Ya! / 3D (1981) [1080p, Zoom Half OverUnder / Вертикальная анаморфная стереопара на весь экран]

Регистрация Имя: Пароль: Запомнить Забыли пароль?



Правила форума





Начать новую тему Ответить на тему  [ Сообщений: 3 ] 
Статистика раздачи
Размер: 8.08 ГБ | Зарегистрирован: 03 мар 2016, 14:33 | .torrent скачан: 4
Сиды: 1 [0 байт/сек]    Личи: 11 [0 байт/сек]
Автор Сообщение
 СообщениеДобавлено: 03 мар 2016, 14:33 
Не в сети
Супермодератор
Аватара пользователя
Зарегистрирован: 15 апр 2014, 21:21
Торренты: 411
Раздал: 29.95 ТБ 
Скачал: 1.83 ТБ 
Ратио: 27.439
Спасибо: 2255 / 143
Сообщения: 564
Комментарии: 249
Откуда: РОССИЯ, ЦФО

Слоган: «3-D! It's Back! It's Bigger! It's Better! And it's... Comin' At Ya!»

Год выпуска: 1981
Страна: Италия, Испания, США
Жанр: вестерн

Режиссер: Фердинандо Балди
Сценарий: Вульф Ловенталь, Ллойд Баттиста, Джин Квинтано
Композитор: Карло Савина

В ролях: Тони Энтони, Джин Квинтано, Виктория Абриль, Рикардо Паласиос, Льюис Гордон .
О фильме: Во время свадьбы, делая беспорядок врываются бандиты и похищают невесту. Жених(а вернее уже муж)-был оставлен раненым. Все считают его погибшими. Но они не правы, он выздоровел и начал кровавый путь мести, чтобы найти свою возлюбленную и отомстить за неё и себя!

Язык: английский
Субтитры: нет
Перевод: нет

Качество: BDRip (1080p) by SOLdAt
Видео: AVC / High@L4.1 / 23,976 fps / 1920x1080 / 13000 kbps
Аудио : AC3 / 2 ch / 224 kbps / 16 bit
Размер: 8,08 Гб
Продолжительность: 01:27:15

Формат 3D: Zoom Half OverUnder / Вертикальная анаморфная стереопара на весь экран (16:9)
Порядок ракурсов: левый ракурс-первый
Полное имя : E:\AV\Comin.at.Ya.1981.3D.1080p.H-OU[Engl].mkv
Формат : Matroska
Версия формата : Version 4 / Version 2
Размер файла : 8,08 Гбайт
Продолжительность : 1 ч. 27 м.
Общий поток : 13,3 Мбит/сек
Дата кодирования : UTC 2016-03-03 06:40:22
Программа кодирования : mkvmerge v8.3.0 ('Over the Horizon') 64bit
Библиотека кодирования : libebml v1.3.1 + libmatroska v1.4.2
DURATION : 01:27:15.314000000
Видео
Идентификатор : 1
Формат : AVC
Формат/Информация : Advanced Video Codec
Профиль формата : High@L4.1
Параметр CABAC формата : Да
Параметр ReFrames формата : 4 кадра
Идентификатор кодека : V_MPEG4/ISO/AVC
Продолжительность : 1 ч. 27 м.
Битрейт : 13,0 Мбит/сек
Ширина : 1920 пикселей
Высота : 1080 пикселей
Соотношение сторон : 16:9
Режим частоты кадров : Постоянный
Частота кадров : 23,976 кадра/сек
Цветовое пространство : YUV
Субдискретизация насыщенности : 4:2:0
Битовая глубина : 8 бит
Тип развёртки : Прогрессивная
Бит/(Пиксели*Кадры) : 0.261
Размер потока : 7,78 Гбайт (96%)
Заголовок : 1080p, HOU
Язык : English
Default : Да
Forced : Нет
Аудио
Идентификатор : 2
Формат : AC-3
Формат/Информация : Audio Coding 3
Расширение режима : CM (complete main)
Параметр Endianness формата : Big
Идентификатор кодека : A_AC3
Продолжительность : 1 ч. 27 м.
Вид битрейта : Постоянный
Битрейт : 224 Кбит/сек
Каналы : 2 канала
Расположение каналов : Front: L R
Частота : 48,0 КГц
Битовая глубина : 16 бит
Размер потока : 140 Мбайт (2%)
Заголовок : 2 ch, 224 kb/s - Original
Язык : English
Default : Да
Forced : Нет

Информация о торренте
Торрент:  Зарегистрирован [03 мар 2016, 14:33] Для скачивания необходимо Зарегистрироваться!



Если Вы уже зарегистрированы, то авторизуйтесь на трекере!
Статус:  
Размер:  8.08 ГБ (8 675 465 341 байт)
Приватный:  Нет (DHT включён)
Хэш:  bcf9e1db9a1126872920
73554e22ab503e4c1763
Здоровье:  9%
.torrent скачан:  4
Как тут качать  Правила, основные инструкции, FAQ-и



_________________


 Профиль  
 
 СообщениеДобавлено: 17 сен 2016, 11:24 
Не в сети
заглянувший
Зарегистрирован: 06 дек 2012, 21:50
Торренты: 0
Раздал: 14.06 ГБ 
Скачал: 36.99 ГБ 
Ратио: 0.380
Спасибо: 0 / 1
Сообщения: 6
Комментарии: 6
дайте же скачать !!!!


 Профиль  
 
 СообщениеДобавлено: 17 сен 2016, 11:52 
Не в сети
Супермодератор
Аватара пользователя
Зарегистрирован: 15 апр 2014, 21:21
Торренты: 411
Раздал: 29.95 ТБ 
Скачал: 1.83 ТБ 
Ратио: 27.439
Спасибо: 2255 / 143
Сообщения: 564
Комментарии: 249
Откуда: РОССИЯ, ЦФО
ВасилийСоломон писал(а):
дайте же скачать !!!!

http://my-files.ru/2ijh4o/Comin.at.Ya.1981.mkv
Скачивайте!Ссыль проверил-рабочая!

Comin.at.Ya.1981.3D.720p.HOU
Полное имя : H:\Разное\Comin.at.Ya.1981.3D.HOU.mkv
Формат : Matroska
Версия формата : Version 4 / Version 2
Размер файла : 3,73 Гбайт
Продолжительность : 1 ч. 27 м.
Общий поток : 6123 Кбит/сек
Дата кодирования : UTC 2016-06-27 07:39:08
Программа кодирования : mkvmerge v8.3.0 ('Over the Horizon') 64bit
Библиотека кодирования : libebml v1.3.1 + libmatroska v1.4.2
DURATION : 01:27:15.378000000

Видео
Идентификатор : 1
Формат : AVC
Формат/Информация : Advanced Video Codec
Профиль формата : High@L3.1
Параметр CABAC формата : Да
Параметр ReFrames формата : 4 кадра
Идентификатор кодека : V_MPEG4/ISO/AVC
Продолжительность : 1 ч. 27 м.
Битрейт : 5777 Кбит/сек
Ширина : 1280 пикселей
Высота : 720 пикселей
Соотношение сторон : 16:9
Режим частоты кадров : Постоянный
Частота кадров : 23,962 кадра/сек
Цветовое пространство : YUV
Субдискретизация насыщенности : 4:2:0
Битовая глубина : 8 бит
Тип развёртки : Прогрессивная
Бит/(Пиксели*Кадры) : 0.262
Размер потока : 3,46 Гбайт (93%)
Библиотека кодирования : x264 core 119
Язык : English
Default : Да
Forced : Нет

Аудио
Идентификатор : 2
Формат : AC-3
Формат/Информация : Audio Coding 3
Расширение режима : CM (complete main)
Параметр Endianness формата : Big
Идентификатор кодека : A_AC3
Продолжительность : 1 ч. 27 м.
Вид битрейта : Постоянный
Битрейт : 320 Кбит/сек
Каналы : 6 каналов
Расположение каналов : Front: L C R, Side: L R, LFE
Частота : 48,0 КГц
Битовая глубина : 16 бит
Размер потока : 200 Мбайт (5%)
Язык : English
Default : Да
Forced : Нет

_________________


 Профиль  
 
Показать сообщения за:  Поле сортировки  
Начать новую тему Ответить на тему  [ Сообщений: 3 ] 


Кто сейчас на трекере

Сейчас этот форум просматривают: Google [Bot] и гости: 1


Вы не можете начинать темы
Вы не можете отвечать на сообщения
Вы не можете редактировать свои сообщения
Вы не можете удалять свои сообщения
Вы не можете добавлять вложения

Найти:


Правообладателям

!ВНИМАНИЕ!
Ресурс не предоставляет электронные версии произведений, а занимается лишь коллекционированием и каталогизацией ссылок, присылаемых и публикуемых на форуме нашими читателями. Если вы являетесь правообладателем какого-либо представленного материала и не желаете чтобы ссылка на него находилась в нашем каталоге, свяжитесь с нами и мы незамедлительно удалим её. Файлы для обмена на трекере предоставлены пользователями сайта, и администрация не несёт ответственности за их содержание. Просьба не заливать файлы, защищенные авторскими правами, а также файлы нелегального содержания!
cron
Вверх страницы
Вниз страницы
ppkBB3cker v.2 © 2008-2011 @ PPK