3d-tracker.ru • Просмотр темы - Голодные игры: Сойка-пересмешница. Часть II в 3Д / The Hunger Games: Mockingjay-part 2 3D (2015) [BDRip, 1080p, Zoom Half OU / Вертикальная анаморфная стереопара на весь экран]

Регистрация Имя: Пароль: Запомнить Забыли пароль?



Правила форума





Начать новую тему Ответить на тему  [ 1 сообщение ] 
Статистика раздачи
Размер: 9.56 ГБ | Зарегистрирован: 22 мар 2016, 18:29 | .torrent скачан: 18
Сиды: 8 [0 байт/сек]    Личи: 33 [0 байт/сек]
Автор Сообщение
 СообщениеДобавлено: 22 мар 2016, 18:29 
Не в сети
Супермодератор
Аватара пользователя
Зарегистрирован: 15 апр 2014, 21:21
Торренты: 491
Раздал: 35.22 ТБ 
Скачал: 1.83 ТБ 
Ратио: 30.313
Спасибо: 2833 / 195
Сообщения: 648
Комментарии: 294
Откуда: РОССИЯ, ЦФО

Название: Голодные игры: Сойка-пересмешница. Часть II в 3Д
Оригинальное название: The Hunger Games: Mockingjay - Part 2 3D
Год выпуска: 2015
Жанр: Фантастика, боевик, приключения, постапокалипсис, драма
Выпущено: США, Color Force, Lionsgate, Studio Babelsberg

Режиссер: Френсис Лоуренс
В ролях: Дженнифер Лоуренс, Джош Хатчерсон, Лиам Хемсворт, Вуди Харрельсон, Дональд Сазерленд, Филип Сеймур Хоффман, Джулианна Мур, Уиллоу Шилдс, Сэм Клафлин, Элизабет Бэнкс, Махершала Али, Джена Мэлоун, Джеффри Райт, Паула Малкомсон, Стэнли Туччи, Натали Дормер, Ивэн Росс, Элден Хенсон, Уэс Чэтэм, Эжени Бондюран
О фильме: В Панеме начинается гражданская война против власти Капитолия. Китнисс Эвердин является символом Революции, однако сама себя не осознает как мессия повстанцев. Заручившись помощью близких друзей, Китнисс отправляется в Капитолий. Друзья готовы рискнуть своими жизнями, чтобы освободить граждан Панема, а Китнисс предпринимает попытку убить президента Сноу, который, в свою очередь, одержим идеей навсегда покончить с героиней Дистрикта 12. Но победа повстанцев имеет горький вкус, и Китнисс ждёт гораздо более трудное испытание, чем смертельные ловушки арены Голодных игр.

Продолжительность: 02:05:08
Размер: 9,56 Гб
Перевод: Дублированный [itunes]

Качество: BDRip (1080p) by SOLdAt
Видео: AVC / 24,000 fps / 1920x1080p / 10300 kbps
Аудио : AC3 / 6 ch / 448 kbps

Формат 3D: Zoom Half OverUnder / Вертикальная анаморфная стереопара на весь экран (16:9)
Порядок ракурсов: левый ракурс-первый
Полное имя : E:\AV\the.hunger.games.mockingjay.part.2.2015.3d.1080p.Zoom.H-OU.mkv
Формат : Matroska
Версия формата : Version 4 / Version 2
Размер файла : 9,56 Гбайт
Продолжительность : 2 ч. 5 м.
Общий поток : 10,9 Мбит/сек
Дата кодирования : UTC 2016-03-22 12:33:36
Программа кодирования : mkvmerge v8.3.0 ('Over the Horizon') 64bit
Библиотека кодирования : libebml v1.3.1 + libmatroska v1.4.2
DURATION : 02:05:07.999000000

Видео
Идентификатор : 1
Формат : AVC
Формат/Информация : Advanced Video Codec
Профиль формата : High@L4.0
Параметр CABAC формата : Да
Параметр ReFrames формата : 2 кадра
Идентификатор кодека : V_MPEG4/ISO/AVC
Продолжительность : 2 ч. 5 м.
Битрейт : 10,3 Мбит/сек
Ширина : 1920 пикселей
Высота : 1080 пикселей
Соотношение сторон : 16:9
Режим частоты кадров : Постоянный
Частота кадров : 24,000 кадра/сек
Цветовое пространство : YUV
Субдискретизация насыщенности : 4:2:0
Битовая глубина : 8 бит
Тип развёртки : Прогрессивная
Бит/(Пиксели*Кадры) : 0.206
Размер потока : 8,98 Гбайт (94%)
Заголовок : 1080p, Zoom.H-OU
Язык : English
Default : Да
Forced : Нет

Аудио
Идентификатор : 2
Формат : AC-3
Формат/Информация : Audio Coding 3
Расширение режима : CM (complete main)
Параметр Endianness формата : Big
Идентификатор кодека : A_AC3
Продолжительность : 2 ч. 5 м.
Вид битрейта : Постоянный
Битрейт : 448 Кбит/сек
Каналы : 6 каналов
Расположение каналов : Front: L C R, Side: L R, LFE
Частота : 48,0 КГц
Битовая глубина : 16 бит
Размер потока : 401 Мбайт (4%)
Заголовок : 6 ch, 448 kb/s, itunes
Язык : Russian
Default : Да
Forced : Нет


Информация о торренте
Торрент:  Зарегистрирован [22 мар 2016, 18:29] Для скачивания необходимо Зарегистрироваться!



Если Вы уже зарегистрированы, то авторизуйтесь на трекере!
Статус:  
Размер:  9.56 ГБ (10 268 947 877 байт)
Приватный:  Нет (DHT включён)
Хэш:  31ba6de1596f66defd8e
0e1574a19671db5f84fd
Здоровье:  24%
.torrent скачан:  18
Как тут качать  Правила, основные инструкции, FAQ-и



_________________


 Профиль  
 
Показать сообщения за:  Поле сортировки  
Начать новую тему Ответить на тему  [ 1 сообщение ] 


Кто сейчас на трекере

Сейчас этот форум просматривают: нет зарегистрированных пользователей и гости: 1


Вы не можете начинать темы
Вы не можете отвечать на сообщения
Вы не можете редактировать свои сообщения
Вы не можете удалять свои сообщения
Вы не можете добавлять вложения

Найти:
 cron

Правообладателям

!ВНИМАНИЕ!
Ресурс не предоставляет электронные версии произведений, а занимается лишь коллекционированием и каталогизацией ссылок, присылаемых и публикуемых на форуме нашими читателями. Если вы являетесь правообладателем какого-либо представленного материала и не желаете чтобы ссылка на него находилась в нашем каталоге, свяжитесь с нами и мы незамедлительно удалим её. Файлы для обмена на трекере предоставлены пользователями сайта, и администрация не несёт ответственности за их содержание. Просьба не заливать файлы, защищенные авторскими правами, а также файлы нелегального содержания!
cron
Вверх страницы
Вниз страницы
ppkBB3cker v.2 © 2008-2011 @ PPK