3d-tracker.ru • Просмотр темы - Честь дракона 2 в 3Д / The Protector 2 3D / Tom yum goong 2 3D (2013) [BDRip, 1080p, Zoom Half OverUnder / Вертикальная анаморфная стереопара Без черных полос]

Регистрация Имя: Пароль: Запомнить Забыли пароль?



Правила форума





Начать новую тему Ответить на тему  [ 1 сообщение ] 
Статистика раздачи
Размер: 7.1 ГБ | Зарегистрирован: 13 апр 2016, 11:13 | .torrent скачан: 2
Сиды: 0 [0 байт/сек]    Личи: 6 [0 байт/сек]
Автор Сообщение
 СообщениеДобавлено: 13 апр 2016, 11:13 
Не в сети
Супермодератор
Аватара пользователя
Зарегистрирован: 15 апр 2014, 21:21
Торренты: 464
Раздал: 34.82 ТБ 
Скачал: 1.83 ТБ 
Ратио: 30.093
Спасибо: 2679 / 183
Сообщения: 612
Комментарии: 273
Откуда: РОССИЯ, ЦФО

Название: Честь дракона 2
Оригинальное название: Tom yum goong 2
Год выпуска: 2013
Жанр: Боевик
Выпущено: Тайланд, Sahamongkolfilm Co. Ltd.

Режиссер: Прачья Пинкаю
В ролях: Тони Джаа, RZA, Маррезе Крамп, Йанин Висмитананда, Винс Макилинг, Уджал Тхапа, Эдди Руис, Эдгар Варгас, Джон Данг, Джавед Эль Берни, Рэйден Интегра
О фильме: Влиятельного владельца слоновьего заповедника Сучарта убивает неизвестный эксперт по боевым искусствам, использовавший три удара по смертельным для жизни точкам, и Кхам становится основным подозреваемым в убийстве, так как он был последним, кого видели на месте преступления. Ему пришлось бежать от властей, тем временем за ним начали охоту двойняшки — племянницы Сучарта. К счастью, его выручил сержант Марк, агент Интерпола, присланный из Сиднея для выполнения некоего секретного задания.

Размер: 7.10 ГБ
Продолжительность: 01:39:24
Перевод: Профессиональный (многоголосый, закадровый) [Официальный звук]

Качество: BDRip (1080p)
Видео: AVC / 23,976 fps / 1920x1080p / 9858 kbps
Аудио : AC3 / 2 ch / 192 kbps

Формат 3D: Zoom Half OverUnder / Вертикальная анаморфная стереопара (16:9)
Порядок ракурсов: левый ракурс-первый
Полное имя : E:\AV\The.Protector.2.2013.3D.Zoom.H-OU.mkv
Формат : Matroska
Версия формата : Version 4 / Version 2
Размер файла : 7,10 Гбайт
Продолжительность : 1 ч. 39 м.
Общий поток : 10,2 Мбит/сек
Дата кодирования : UTC 2016-04-13 05:47:13
Программа кодирования : mkvmerge v7.1.0 ('Good Love') 64bit built on Jul 27 2014 13:06:55
Библиотека кодирования : libebml v1.3.0 + libmatroska v1.4.1
Видео
Идентификатор : 1
Формат : AVC
Формат/Информация : Advanced Video Codec
Профиль формата : High@L1.3
Параметр CABAC формата : Да
Параметр ReFrames формата : 2 кадра
Идентификатор кодека : V_MPEG4/ISO/AVC
Продолжительность : 1 ч. 39 м.
Битрейт : 9858 Кбит/сек
Ширина : 1920 пикселей
Высота : 1080 пикселей
Соотношение сторон : 16:9
Режим частоты кадров : Постоянный
Частота кадров : 23,976 кадра/сек
Цветовое пространство : YUV
Субдискретизация насыщенности : 4:2:0
Битовая глубина : 8 бит
Тип развёртки : Прогрессивная
Бит/(Пиксели*Кадры) : 0.198
Размер потока : 6,84 Гбайт (96%)
Заголовок : 1080p, Zoom HOU
Язык : English
Default : Да
Forced : Нет
DURATION : 01:39:24.039000000
Аудио
Идентификатор : 2
Формат : AC-3
Формат/Информация : Audio Coding 3
Расширение режима : CM (complete main)
Параметр Endianness формата : Big
Идентификатор кодека : A_AC3
Продолжительность : 1 ч. 39 м.
Вид битрейта : Постоянный
Битрейт : 192 Кбит/сек
Каналы : 2 канала
Расположение каналов : Front: L R
Частота : 48,0 КГц
Битовая глубина : 16 бит
Размер потока : 114 Мбайт (2%)
Заголовок : 2 ch, 192 kb/s
Язык : Russian
Default : Да
Forced : Нет

Информация о торренте
Торрент:  Зарегистрирован [13 апр 2016, 11:13] Для скачивания необходимо Зарегистрироваться!



Если Вы уже зарегистрированы, то авторизуйтесь на трекере!
Статус:  
Размер:  7.1 ГБ (7 619 800 334 байт)
Приватный:  Нет (DHT включён)
Хэш:  995f1fbeaeaddb777575
c07a1875c3d42f7aa18c
Здоровье:  ???%
.torrent скачан:  2
Как тут качать  Правила, основные инструкции, FAQ-и



_________________


 Профиль  
 
Показать сообщения за:  Поле сортировки  
Начать новую тему Ответить на тему  [ 1 сообщение ] 


Кто сейчас на трекере

Сейчас этот форум просматривают: нет зарегистрированных пользователей и гости: 1


Вы не можете начинать темы
Вы не можете отвечать на сообщения
Вы не можете редактировать свои сообщения
Вы не можете удалять свои сообщения
Вы не можете добавлять вложения

Найти:
 cron

Правообладателям

!ВНИМАНИЕ!
Ресурс не предоставляет электронные версии произведений, а занимается лишь коллекционированием и каталогизацией ссылок, присылаемых и публикуемых на форуме нашими читателями. Если вы являетесь правообладателем какого-либо представленного материала и не желаете чтобы ссылка на него находилась в нашем каталоге, свяжитесь с нами и мы незамедлительно удалим её. Файлы для обмена на трекере предоставлены пользователями сайта, и администрация не несёт ответственности за их содержание. Просьба не заливать файлы, защищенные авторскими правами, а также файлы нелегального содержания!
cron
Вверх страницы
Вниз страницы
ppkBB3cker v.2 © 2008-2011 @ PPK