3d-tracker.ru • Просмотр темы - Фантастическое вторжение на планету Земля в 3Д / The Bubble 3D (1966) [BDRip, 1080p, Zoom Half OverUnder / Вертикальная анаморфная стереопара на весь экран]

Регистрация Имя: Пароль: Запомнить Забыли пароль?



Правила форума





Начать новую тему Ответить на тему  [ 1 сообщение ] 
Статистика раздачи
Размер: 8.13 ГБ | Зарегистрирован: 03 июн 2016, 19:37 | .torrent скачан: 5
Сиды: 3 [0 байт/сек]    Личи: 2 [0 байт/сек]
Автор Сообщение
 СообщениеДобавлено: 03 июн 2016, 19:37 
Не в сети
Супермодератор
Аватара пользователя
Зарегистрирован: 15 апр 2014, 21:21
Торренты: 438
Раздал: 33.29 ТБ 
Скачал: 1.83 ТБ 
Ратио: 29.262
Спасибо: 2466 / 165
Сообщения: 580
Комментарии: 259
Откуда: РОССИЯ, ЦФО

Название: Фантастическое вторжение на планету Земля (Пузырь)
Оригинальное название: The Bubble
Год выпуска: 1966
Жанр: Фантастика
Выпущено: США, Arch Oboler Productions, Midwestern MagicVuers

Режиссер: Арч Оболер
В ролях: Майкл Коул, Дебора Уолли, Джонни Десмонд, Касси МакМахон, Барбара Эйлер, Вирджиния Грегг, Вик Перрин, Олэн Сул, Честер Джонс
О фильме: Самолет с героями фильма в непогоду вынужден сесть в небольшом городке. Не сразу понимают герои, что космические пришельцы накрыли город куполом (как накрывают стаканом исследуемое насекомое). Обитатели города двигаются как во сне, они потеряли память и время для них остановилось на минуте вторжения. Герои предпринимают все усилия, чтобы вырваться из города. Возможно для освобождения нужно будет вырыть подкоп под купол (Пузырь)...

Роли озвучивали: den904
Перевод: Severnyj

Качество: BDRip (1080p) by SOLdAt
Видео: MPEG-4 AVC, 13,0 Мбит/с, 1920x1080, 23,976 fps
Аудио: Русский AC3, 2 ch, 192 Кбит/с
Размер: 8.13 ГБ
Продолжительность: 01:27:45
Перевод: Дублированный

Формат 3D: Zoom Half OverUnder / Вертикальная анаморфная стереопара (16:9)
Порядок ракурсов: Верхний ракурс - первый
Полное имя : E:\AV\THE.BUBBLE-3D.1966.1080p.Zoom.H-OU.mkv
Формат : Matroska
Версия формата : Version 4 / Version 2
Размер файла : 8,13 Гбайт
Продолжительность : 1 ч. 27 м.
Общий поток : 13,3 Мбит/сек
Название фильма : THE_BUBBLE-3D.BlurayRip.by_SOLdAt
Дата кодирования : UTC 2016-06-03 13:27:27
Программа кодирования : mkvmerge v8.3.0 ('Over the Horizon') 64bit
Библиотека кодирования : libebml v1.3.1 + libmatroska v1.4.2
DURATION : 01:27:44.622000000
Видео
Идентификатор : 1
Формат : AVC
Формат/Информация : Advanced Video Codec
Профиль формата : High@L4.1
Параметр CABAC формата : Да
Параметр ReFrames формата : 4 кадра
Идентификатор кодека : V_MPEG4/ISO/AVC
Продолжительность : 1 ч. 27 м.
Битрейт : 13,0 Мбит/сек
Ширина : 1920 пикселей
Высота : 1080 пикселей
Соотношение сторон : 16:9
Режим частоты кадров : Постоянный
Частота кадров : 23,976 кадра/сек
Цветовое пространство : YUV
Субдискретизация насыщенности : 4:2:0
Битовая глубина : 8 бит
Тип развёртки : Прогрессивная
Бит/(Пиксели*Кадры) : 0.261
Размер потока : 7,85 Гбайт (97%)
Заголовок : 1080p.Zoom.HOU
Язык : English
Default : Да
Forced : Нет
Аудио
Идентификатор : 2
Формат : AC-3
Формат/Информация : Audio Coding 3
Расширение режима : CM (complete main)
Параметр Endianness формата : Big
Идентификатор кодека : A_AC3
Продолжительность : 1 ч. 27 м.
Вид битрейта : Постоянный
Битрейт : 192 Кбит/сек
Каналы : 2 канала
Расположение каналов : Front: L R
Частота : 48,0 КГц
Битовая глубина : 16 бит
Размер потока : 120 Мбайт (1%)
Заголовок : 2 ch, 192 kb/s
Язык : Russian
Default : Да
Forced : Нет

Информация о торренте
Торрент:  Зарегистрирован [03 июн 2016, 19:37] Для скачивания необходимо Зарегистрироваться!



Если Вы уже зарегистрированы, то авторизуйтесь на трекере!
Статус:  
Размер:  8.13 ГБ (8 725 246 237 байт)
Приватный:  Нет (DHT включён)
Хэш:  60e3e2f9ddfb8dceccea
7c27bd2a3ab32703df16
Здоровье:  100%
.torrent скачан:  5
Как тут качать  Правила, основные инструкции, FAQ-и



_________________


 Профиль  
 
Показать сообщения за:  Поле сортировки  
Начать новую тему Ответить на тему  [ 1 сообщение ] 


Кто сейчас на трекере

Сейчас этот форум просматривают: нет зарегистрированных пользователей и гости: 1


Вы не можете начинать темы
Вы не можете отвечать на сообщения
Вы не можете редактировать свои сообщения
Вы не можете удалять свои сообщения
Вы не можете добавлять вложения

Найти:


Правообладателям

!ВНИМАНИЕ!
Ресурс не предоставляет электронные версии произведений, а занимается лишь коллекционированием и каталогизацией ссылок, присылаемых и публикуемых на форуме нашими читателями. Если вы являетесь правообладателем какого-либо представленного материала и не желаете чтобы ссылка на него находилась в нашем каталоге, свяжитесь с нами и мы незамедлительно удалим её. Файлы для обмена на трекере предоставлены пользователями сайта, и администрация не несёт ответственности за их содержание. Просьба не заливать файлы, защищенные авторскими правами, а также файлы нелегального содержания!
cron
Вверх страницы
Вниз страницы
ppkBB3cker v.2 © 2008-2011 @ PPK