3d-tracker.ru • Просмотр темы - Русалка в 3Д / Mei ren yu 3D (2016) [BDRip, Half SideBySide / Горизонтальная анаморфная стереопара]

Регистрация Имя: Пароль: Запомнить Забыли пароль?



Правила форума





Начать новую тему Ответить на тему  [ 1 сообщение ] 
Статистика раздачи
Размер: 12.31 ГБ | Зарегистрирован: 05 июн 2016, 09:21 | .torrent скачан: 11
Сиды: 1 [0 байт/сек]    Личи: 2 [0 байт/сек]
Автор Сообщение
 СообщениеДобавлено: 05 июн 2016, 09:21 
Не в сети
Супермодератор
Аватара пользователя
Зарегистрирован: 15 апр 2014, 21:21
Торренты: 491
Раздал: 35.22 ТБ 
Скачал: 1.83 ТБ 
Ратио: 30.313
Спасибо: 2836 / 197
Сообщения: 649
Комментарии: 295
Откуда: РОССИЯ, ЦФО

Название: Русалка
Оригинальное название: Mei ren yu (Mermaid)
Год выпуска: 2016
Жанр: Фантастика, фэнтези, драма, мелодрама
Выпущено: Китай, Alibaba Pictures Group

Режиссер: Стивен Чоу
В ролях: Чао Ден, Юнь Линь, Шоу Ло, Юки Чжан, Пьер Бурдо, Кэ Бай, Иван Котик, Ляншун Конг, Кай Ман Тинь, Харк Цуй, Чжан Вэнь, Ифань У, Сялон Бо
О фильме: Чтобы построить современный морской курорт, амбициозный миллионер покупает часть морского заповедника, где обитают дельфины. Совершенно очевидно, что морские обитатели в его план не вписываются. Чтобы сохранить подводный животный мир, юная русалка решает соблазнить предпринимателя, а потом убить, но в дело вмешивается любовь...

Качество: BDRip (1080p)
Видео: MPEG-4 AVC, 18000 Кбит/с, 1920x1080
Аудио: Русский (АС3, 2 ch, 192 Кбит/с), китайский (AC3, 6 ch, 640 Кбит/с)
Размер: 12.31 ГБ
Продолжительность: 01:34:00
Перевод: Любительский (одноголосый закадровый) В. Замез

Формат 3D: Anamorph SideBySide / Горизонтальная анаморфная стереопара
Порядок ракурсов: левый ракурс - первый
Complete name : C:\Downloads\The Mermaid 3D.mkv
Format : Matroska
Format version : Version 4 / Version 2
File size : 12.3 GiB
Duration : 1h 33mn
Overall bit rate : 18.8 Mbps
Movie name : Русалка в 3D
Encoded date : UTC 2016-05-28 15:36:23
Writing application : mkvmerge v7.2.0 ('On Every Street') 64bit built on Sep 13 2014 15:52:10
Writing library : libebml v1.3.0 + libmatroska v1.4.1
_STATISTICS_WRITING_APP : mkvmerge v7.2.0 ('On Every Street') 64bit built on Sep 13 2014 15:52:10
_STATISTICS_WRITING_DATE_UTC : 2016-05-28 15:36:23
_STATISTICS_TAGS : BPS DURATION NUMBER_OF_FRAMES NUMBER_OF_BYTES
DURATION : 01:33:51.936000000
NUMBER_OF_FRAMES : 175998
NUMBER_OF_BYTES : 135166464

Video
ID : 1
Format : AVC
Format/Info : Advanced Video Codec
Format profile : High@L4.1
Format settings, CABAC : Yes
Format settings, ReFrames : 4 frames
Codec ID : V_MPEG4/ISO/AVC
Bit rate : 18.0 Mbps
Width : 1 920 pixels
Height : 1 080 pixels
Display aspect ratio : 16:9
Frame rate mode : Variable
Original frame rate : 23.976 fps
Color space : YUV
Chroma subsampling : 4:2:0
Bit depth : 8 bits
Scan type : Progressive
Bits/(Pixel*Frame) : 0.362
Writing library : x264 core 133 r2334 a3ac64b
Encoding settings : cabac=1 / ref=4 / deblock=1:-3:-3 / analyse=0x3:0x133 / me=umh / subme=11 / psy=1 / psy_rd=1.05:0.10 / mixed_ref=1 / me_range=64 / chroma_me=1 / trellis=2 / 8x8dct=1 / cqm=0 / deadzone=21,11 / fast_pskip=0 / chroma_qp_offset=-3 / threads=12 / lookahead_threads=2 / sliced_threads=0 / nr=0 / decimate=1 / interlaced=0 / bluray_compat=0 / constrained_intra=0 / bframes=8 / b_pyramid=2 / b_adapt=2 / b_bias=0 / direct=3 / weightb=1 / open_gop=0 / weightp=2 / keyint=250 / keyint_min=23 / scenecut=40 / intra_refresh=0 / rc_lookahead=80 / rc=2pass / mbtree=1 / bitrate=18000 / ratetol=1.0 / qcomp=0.60 / qpmin=0 / qpmax=69 / qpstep=4 / cplxblur=20.0 / qblur=0.5 / vbv_maxrate=40000 / vbv_bufsize=30000 / nal_hrd=none / ip_ratio=1.40 / aq=1:0.80
Language : English
Default : Yes
Forced : No
_STATISTICS_WRITING_APP : mkvmerge v7.2.0 ('On Every Street') 64bit built on Sep 13 2014 15:52:10
_STATISTICS_WRITING_DATE_UTC : 2016-05-28 15:36:23
_STATISTICS_TAGS : BPS DURATION NUMBER_OF_FRAMES NUMBER_OF_BYTES
DURATION : 01:33:45.741000000
NUMBER_OF_FRAMES : 134883
NUMBER_OF_BYTES : 12630994165

Audio #1
ID : 2
Format : AC-3
Format/Info : Audio Coding 3
Mode extension : CM (complete main)
Format settings, Endianness : Big
Codec ID : A_AC3
Duration : 1h 33mn
Bit rate mode : Constant
Bit rate : 192 Kbps
Channel(s) : 2 channels
Channel positions : Front: L R
Sampling rate : 48.0 KHz
Bit depth : 16 bits
Compression mode : Lossy
Stream size : 129 MiB (1%)
Title : В. Замез
Language : Russian
Default : Yes
Forced : No

Audio #2
ID : 3
Format : AC-3
Format/Info : Audio Coding 3
Mode extension : CM (complete main)
Format settings, Endianness : Big
Codec ID : A_AC3
Duration : 1h 33mn
Bit rate mode : Constant
Bit rate : 640 Kbps
Channel(s) : 6 channels
Channel positions : Front: L C R, Side: L R, LFE
Sampling rate : 48.0 KHz
Bit depth : 16 bits
Compression mode : Lossy
Stream size : 430 MiB (3%)
Title : Оригинал
Language : Chinese
Default : No
Forced : No

Menu
00:00:00.000 : en:00:00:00.000
00:06:15.625 : en:00:06:15.625
00:15:11.076 : en:00:15:11.076
00:23:16.186 : en:00:23:16.186
00:30:53.977 : en:00:30:53.977
00:40:44.692 : en:00:40:44.692
00:47:27.511 : en:00:47:27.511
00:55:52.057 : en:00:55:52.057
00:59:46.291 : en:00:59:46.291
01:09:14.984 : en:01:09:14.984
01:17:51.958 : en:01:17:51.958
01:25:13.108 : en:01:25:13.108

Информация о торренте
Торрент:  Зарегистрирован [05 июн 2016, 09:21] Для скачивания необходимо Зарегистрироваться!



Если Вы уже зарегистрированы, то авторизуйтесь на трекере!
Статус:  
Размер:  12.31 ГБ (13 217 858 432 байт)
Приватный:  Нет (DHT включён)
Хэш:  55fa4bf383e07b61d278
074e1d3ad8d1fb699499
Здоровье:  50%
.torrent скачан:  11
Как тут качать  Правила, основные инструкции, FAQ-и



_________________


 Профиль  
 
Показать сообщения за:  Поле сортировки  
Начать новую тему Ответить на тему  [ 1 сообщение ] 


Кто сейчас на трекере

Сейчас этот форум просматривают: нет зарегистрированных пользователей и гости: 2


Вы не можете начинать темы
Вы не можете отвечать на сообщения
Вы не можете редактировать свои сообщения
Вы не можете удалять свои сообщения
Вы не можете добавлять вложения

Найти:


Правообладателям

!ВНИМАНИЕ!
Ресурс не предоставляет электронные версии произведений, а занимается лишь коллекционированием и каталогизацией ссылок, присылаемых и публикуемых на форуме нашими читателями. Если вы являетесь правообладателем какого-либо представленного материала и не желаете чтобы ссылка на него находилась в нашем каталоге, свяжитесь с нами и мы незамедлительно удалим её. Файлы для обмена на трекере предоставлены пользователями сайта, и администрация не несёт ответственности за их содержание. Просьба не заливать файлы, защищенные авторскими правами, а также файлы нелегального содержания!
cron
Вверх страницы
Вниз страницы
ppkBB3cker v.2 © 2008-2011 @ PPK