3d-tracker.ru • Просмотр темы - Гог в 3Д / Gog 3D (1954) [BDRip, 1080p, Half OverUnder / Вертикальная анаморфная стереопара]

Регистрация Имя: Пароль: Запомнить Забыли пароль?



Правила форума





Начать новую тему Ответить на тему  [ 1 сообщение ] 
Статистика раздачи
Размер: 6.89 ГБ | Зарегистрирован: 07 июн 2016, 12:46 | .torrent скачан: 2
Сиды: 1 [0 байт/сек]    Личи: 2 [0 байт/сек]
Автор Сообщение
 СообщениеДобавлено: 07 июн 2016, 12:46 
Не в сети
Супермодератор
Аватара пользователя
Зарегистрирован: 15 апр 2014, 21:21
Торренты: 427
Раздал: 30.04 ТБ 
Скачал: 1.83 ТБ 
Ратио: 27.484
Спасибо: 2392 / 157
Сообщения: 576
Комментарии: 251
Откуда: РОССИЯ, ЦФО

Название: Гог
Оригинальное название: Gog
Год выпуска: 1954
Жанр: Ужасы, фантастика, триллер, драма, мелодрама
Выпущено: США, Ivan Tors Productions
Режиссер: Херберт Л. Строк

В ролях: Ричард Иган, Констанс Даулин, Херберт Маршалл, Джон Венграф, Филип Ван Зандт, Валери Вернон, Стивен Робертс, Байрон Кэйн, Дэвид Элперт,Майкл Фокс
О фильме: В секретной подземной лаборатории якобы от несчастного случая умирают профессор и его ассистентка. Начальству это не кажется случайным и для расследования в лабораторию вызывается агент службы безопасности научных исследований Дэвид Шепард . В лаборатории он и его помощница знакомятся с последними разработками учёных в военной и аэрокосмической области, например с суперкомпьютером, управляющим всей базой и двумя роботами, имеющих собственные имена – Гог и Магог. Однако с момента прибытия Шепарда в научном комплексе начинают происходить странные вещи.

Качество: BDRip (1080p) by SOLdAt
Видео: MPEG-4 AVC, 11500 Кбит/с, 1788х1080, 23.976 кадр/с
Аудио: АС3, 2 ch, 192 Кбит/с
Размер: 6.89 ГБ
Продолжительность: 01:22:26
Перевод: Профессиональный многоголосый

Формат 3D: Half OverUnder / Вертикальная анаморфная стереопара
Порядок ракурсов: Верхний ракурс - первый
Полное имя : E:\AV\GOG.3D.1080p.H-OU.by_SOLdAt.mkv
Формат : Matroska
Версия формата : Version 4 / Version 2
Размер файла : 6,89 Гбайт
Продолжительность : 1 ч. 22 м.
Общий поток : 12,0 Мбит/сек
Название фильма : from.SOLdAt
Дата кодирования : UTC 2016-06-07 07:04:35
Программа кодирования : mkvmerge v7.1.0 ('Good Love') 64bit
Библиотека кодирования : libebml v1.3.0 + libmatroska v1.4.1
DURATION : 01:22:25.983000000

Видео
Идентификатор : 1
Формат : AVC
Формат/Информация : Advanced Video Codec
Профиль формата : High@L4.0
Параметр CABAC формата : Да
Параметр ReFrames формата : 2 кадра
Идентификатор кодека : V_MPEG4/ISO/AVC
Продолжительность : 1 ч. 22 м.
Битрейт : 11,5 Мбит/сек
Ширина : 1920 пикселей
Высота : 1080 пикселей
Соотношение сторон : 16:9
Режим частоты кадров : Постоянный
Частота кадров : 23,976 кадра/сек
Цветовое пространство : YUV
Субдискретизация насыщенности : 4:2:0
Битовая глубина : 8 бит
Тип развёртки : Прогрессивная
Бит/(Пиксели*Кадры) : 0.232
Размер потока : 6,64 Гбайт (96%)
Заголовок : 1080p, HOU
Язык : English
Default : Да
Forced : Нет

Аудио
Идентификатор : 2
Формат : AC-3
Формат/Информация : Audio Coding 3
Расширение режима : CM (complete main)
Параметр Endianness формата : Big
Идентификатор кодека : A_AC3
Продолжительность : 1 ч. 22 м.
Вид битрейта : Постоянный
Битрейт : 192 Кбит/сек
Каналы : 2 канала
Расположение каналов : Front: L R
Частота : 48,0 КГц
Битовая глубина : 16 бит
Размер потока : 113 Мбайт (2%)
Заголовок : 2 ch, 192 kb/s
Язык : Russian
Default : Да
Forced : Нет

Информация о торренте
Торрент:  Зарегистрирован [07 июн 2016, 12:46] Для скачивания необходимо Зарегистрироваться!



Если Вы уже зарегистрированы, то авторизуйтесь на трекере!
Статус:  
Размер:  6.89 ГБ (7 397 858 605 байт)
Приватный:  Нет (DHT включён)
Хэш:  8b10788be60a4d21ebd8
ec0dea92abaf715f5372
Здоровье:  50%
.torrent скачан:  2
Как тут качать  Правила, основные инструкции, FAQ-и



_________________


 Профиль  
 
Показать сообщения за:  Поле сортировки  
Начать новую тему Ответить на тему  [ 1 сообщение ] 


Кто сейчас на трекере

Сейчас этот форум просматривают: нет зарегистрированных пользователей и гости: 1


Вы не можете начинать темы
Вы не можете отвечать на сообщения
Вы не можете редактировать свои сообщения
Вы не можете удалять свои сообщения
Вы не можете добавлять вложения

Найти:


Правообладателям

!ВНИМАНИЕ!
Ресурс не предоставляет электронные версии произведений, а занимается лишь коллекционированием и каталогизацией ссылок, присылаемых и публикуемых на форуме нашими читателями. Если вы являетесь правообладателем какого-либо представленного материала и не желаете чтобы ссылка на него находилась в нашем каталоге, свяжитесь с нами и мы незамедлительно удалим её. Файлы для обмена на трекере предоставлены пользователями сайта, и администрация не несёт ответственности за их содержание. Просьба не заливать файлы, защищенные авторскими правами, а также файлы нелегального содержания!
cron
Вверх страницы
Вниз страницы
ppkBB3cker v.2 © 2008-2011 @ PPK