3d-tracker.ru • Просмотр темы - Три икса: Мировое господство / xXx: Return of Xander Cage (2017) [BDRip-AVC by SOLdAt, 1080p, Half OverUnder / Вертикальная анаморфная стереопара на весь экран]

Регистрация Имя: Пароль: Запомнить Забыли пароль?



Правила форума





Начать новую тему Ответить на тему  [ Сообщений: 3 ] 
Статистика раздачи
Размер: 8.49 ГБ | Зарегистрирован: 24 май 2017, 07:31 | .torrent скачан: 38
Сиды: 13 [0 байт/сек]    Личи: 0 [0 байт/сек]
Автор Сообщение
 СообщениеДобавлено: 24 май 2017, 07:31 
Не в сети
Супермодератор
Аватара пользователя
Зарегистрирован: 15 апр 2014, 21:21
Торренты: 519
Раздал: 36.07 ТБ 
Скачал: 1.83 ТБ 
Ратио: 30.774
Спасибо: 3020 / 212
Сообщения: 685
Комментарии: 311
Откуда: РОССИЯ, ЦФО


Производство: Maple Cage Productions, One Race Films, Revolution Studios, Rox Productions
Год выпуска: 2017
Жанр: боевик, триллер, приключения
Продолжительность: 01:46:46

Режиссер: Ди Джей Карузо
Авторы сценария: Ф. Скотт Фрэйзер, Рич Уилкс
В ролях: Вин Дизель, Донни Йен, Дипика Падукон, Крис У, Руби Роуз, Тони Джа, Нина Добрев, Рори МакКанн, Тони Коллетт, Сэмюэл Л. Джексон
Описание: Ксандер Кейдж спустя годы возвращается из добровольного изгнания и попадает в безумный водоворот событий. Он собирает команду безбашенных экстремалов, вместе с которыми ему предстоит найти мощнейшее секретное оружие — «Ящик Пандоры». Действовать нужно быстро: за разработкой охотятся опасные головорезы. Ставки в смертельной игре повышаются, когда выясняется, что мировые правительства вовлечены в кровавый заговор, а на кону — судьба мира...
Перевод: Профессиональный (полное дублирование) | iTunes

Качество: BDRip (1080p) by SOLdAt
Видео: AVC, 1920x1080, 23,976 fps, 10300 kbp/s
Звук:
Аудио #01: 48 kHz, AC3, 5.1, 448 Kbps | Дублированный | RUS |
Аудио #02: 48 kHz, AC3, 5.1, 448 Kbps | Оригинал | ENG |
Размер: 8,49 Гб

Формат 3D: Half OverUnder / Вертикальная анаморфная стереопара (16:9)
Порядок ракурсов: верхний ракурс - первый.
Полное имя : E:\AV\xXx.Return.of.Xander.Cage.2017.3D.BlurayRip.1080p.Z-HOU.mkv
Формат : Matroska
Версия формата : Version 4 / Version 2
Размер файла : 8,49 Гбайт
Название фильма : xXx.Return.of.Xander.Cage.3D.BlurayRip_by_SOLdAt
Дата кодирования : UTC 2017-05-24 01:44:45
Программа кодирования : mkvmerge v7.1.0 ('Good Love') 64bit
Библиотека кодирования : libebml v1.3.0 + libmatroska v1.4.1
DURATION : 01:46:45.760000000

Видео
Идентификатор : 1
Формат : AVC
Формат/Информация : Advanced Video Codec
Профиль формата : High@L4.0
Параметр CABAC формата : Да
Параметр ReFrames формата : 2 кадрa
Идентификатор кодека : V_MPEG4/ISO/AVC
Битрейт : 10,3 Мбит/сек
Ширина : 1920 пикселей
Высота : 1080 пикселей
Соотношение сторон : 16:9
Режим частоты кадров : Постоянный
Частота кадров : 23,976 кадра/сек
Цветовое пространство : YUV
Субдискретизация насыщенности : 4:2:0
Битовая глубина : 8 бит
Тип развёртки : Прогрессивная
Бит/(Пиксели*Кадры) : 0.206
Размер потока : 7,66 Гбайт (90%)
Заголовок : 1080p, Zoom HOU
Язык : English
Default : Да
Forced : Нет
DURATION : 01:46:45.650000000

Аудио #1
Идентификатор : 2
Формат : AC-3
Формат/Информация : Audio Coding 3
Расширение режима : CM (complete main)
Параметр Endianness формата : Big
Идентификатор кодека : A_AC3
Вид битрейта : Постоянный
Битрейт : 448 Кбит/сек
Каналы : 6 каналов
Расположение каналов : Front: L C R, Side: L R, LFE
Частота : 48,0 КГц
Битовая глубина : 16 бит
Размер потока : 342 Мбайт (4%)
Заголовок : 6 ch, 448 kbit/s - Dub
Язык : Russian
Default : Да
Forced : Нет

Аудио #2
Идентификатор : 3
Формат : AC-3
Формат/Информация : Audio Coding 3
Расширение режима : CM (complete main)
Параметр Endianness формата : Big
Идентификатор кодека : A_AC3
Вид битрейта : Постоянный
Битрейт : 448 Кбит/сек
Каналы : 6 каналов
Расположение каналов : Front: L C R, Side: L R, LFE
Частота : 48,0 КГц
Битовая глубина : 16 бит
Размер потока : 342 Мбайт (4%)
Заголовок : Original BD3D
Язык : English
Default : Нет
Forced : Нет

Информация о торренте
Торрент:  Зарегистрирован [24 май 2017, 07:31] Для скачивания необходимо Зарегистрироваться!



Если Вы уже зарегистрированы, то авторизуйтесь на трекере!
Статус:  
Размер:  8.49 ГБ (9 119 201 656 байт)
Приватный:  Нет (DHT включён)
Хэш:  6906e28d55901cf8e951
68628a6dfaf36c89c8bc
Здоровье:  100%
.torrent скачан:  38
Как тут качать  Правила, основные инструкции, FAQ-и



_________________


 Профиль  
 
 СообщениеДобавлено: 31 май 2017, 15:08 
Не в сети
заглянувший
Аватара пользователя
Зарегистрирован: 04 ноя 2012, 22:36
Торренты: 0
Раздал: 527.02 ГБ 
Скачал: 495.2 ГБ 
Ратио: 1.064
Спасибо: 0 / 11
Сообщения: 18
Комментарии: 18
Откуда: Северодвинск
Фильм насыщен динамическими сценами,и в вот тут очень заметно распадение на пиксели.Смотреть не возможно.За релиз спасибо,но придется скачать с черными полосами

_________________
Смотрю на LG55B870V+XGimi H1


 Профиль  
 
 СообщениеДобавлено: 31 май 2017, 17:28 
Не в сети
Супермодератор
Аватара пользователя
Зарегистрирован: 15 апр 2014, 21:21
Торренты: 519
Раздал: 36.07 ТБ 
Скачал: 1.83 ТБ 
Ратио: 30.774
Спасибо: 3020 / 212
Сообщения: 685
Комментарии: 311
Откуда: РОССИЯ, ЦФО
ТВ с большой диагональю-у меня на 2х ТВ 42-49 дюйма(лыжа)-все нормально!
Тем более битрейт 10300!
Странно! С 3Д блюра как обычно делал!

_________________


 Профиль  
 
Показать сообщения за:  Поле сортировки  
Начать новую тему Ответить на тему  [ Сообщений: 3 ] 


Кто сейчас на трекере

Сейчас этот форум просматривают: нет зарегистрированных пользователей и гости: 3


Вы не можете начинать темы
Вы не можете отвечать на сообщения
Вы не можете редактировать свои сообщения
Вы не можете удалять свои сообщения
Вы не можете добавлять вложения

Найти:


Правообладателям

!ВНИМАНИЕ!
Ресурс не предоставляет электронные версии произведений, а занимается лишь коллекционированием и каталогизацией ссылок, присылаемых и публикуемых на форуме нашими читателями. Если вы являетесь правообладателем какого-либо представленного материала и не желаете чтобы ссылка на него находилась в нашем каталоге, свяжитесь с нами и мы незамедлительно удалим её. Файлы для обмена на трекере предоставлены пользователями сайта, и администрация не несёт ответственности за их содержание. Просьба не заливать файлы, защищенные авторскими правами, а также файлы нелегального содержания!
cron
Вверх страницы
Вниз страницы
ppkBB3cker v.2 © 2008-2011 @ PPK