3d-tracker.ru • Просмотр темы - Последний отсчет в 3Д / The Final Countdown 3D (1980) [BDRip, 1080p, Half OverUnder / Вертикальная анаморфная стереопара на весь экран]

Регистрация Имя: Пароль: Запомнить Забыли пароль?



Правила форума





Начать новую тему Ответить на тему  [ 1 сообщение ] 
Статистика раздачи
Размер: 5.72 ГБ | Зарегистрирован: 10 июл 2017, 15:20 | .torrent скачан: 11
Сиды: 3 [0 байт/сек]    Личи: 1 [0 байт/сек]
Автор Сообщение
 СообщениеДобавлено: 10 июл 2017, 15:20 
Не в сети
Супермодератор
Аватара пользователя
Зарегистрирован: 15 апр 2014, 21:21
Торренты: 519
Раздал: 35.86 ТБ 
Скачал: 1.83 ТБ 
Ратио: 30.661
Спасибо: 3008 / 212
Сообщения: 685
Комментарии: 311
Откуда: РОССИЯ, ЦФО

Исходник: The.Final.Countdown.1980.3D.BDRemux.1080p
Название: Последний отсчет
Оригинальное название: The Final Countdown
Год выхода: 1980
Жанр: Фантастика, боевик, военный

Режиссер: Дон Тейлор
В ролях: Кирк Дуглас, Мартин Шин, Кэтрин Росс, Джеймс Фарентино, Рон О`Нил, Чарльз Дёрнинг, Виктор Мохика, Джеймс С. Лоуренс, Сун-Тек Ох, Джо Лоури
О фильме: Авианосец ВМФ США «Нимитц» попадает в необычный шторм, и оказывается перемещенным во времени на сорок лет. До нападения японцев на Перл-Харбор осталось несколько часов и у летчиков с «Нимица» есть возможность предотвратить трагедию. Но имеют ли они право нарушить ход истории?

Страна: США, Polyc International BV, The Bryna Company
Продолжительность: 01:39:27
Перевод: Профессиональный многоголосый

Качество: BDRip (1080p)
Видео: AVC, ~7800 Кбит/с, 1920x1080, 23.976 кадр/с
Звук: Русский AC3, 2 ch, 192 Кбит/с
Pазмер: 5.72 ГБ

Формат 3D: Half OverUnder / Вертикальная анаморфная стереопара (16:9)
Порядок ракурсов: Левый - Первый
Полное имя : E:\AV\The.Final.Countdown.3D.mkv
Формат : Matroska
Версия формата : Version 4 / Version 2
Размер файла : 5,72 Гбайт
Дата кодирования : UTC 2017-07-09 11:43:28
Программа кодирования : mkvmerge v7.1.0 ('Good Love') 64bit
Библиотека кодирования : libebml v1.3.0 + libmatroska v1.4.1
DURATION : 01:39:27.462000000

Видео
Идентификатор : 1
Формат : AVC
Формат/Информация : Advanced Video Codec
Профиль формата : Baseline@L4.1
Параметр CABAC формата : Да
Параметр ReFrames формата : 2 кадра
Идентификатор кодека : V_MPEG4/ISO/AVC
Вид битрейта : Постоянный
Битрейт : 7877 Кбит/сек
Ширина : 1920 пикселей
Высота : 1080 пикселей
Соотношение сторон : 16:9
Режим частоты кадров : Постоянный
Частота кадров : 23,976 кадра/сек
Цветовое пространство : YUV
Субдискретизация насыщенности : 4:2:0
Битовая глубина : 8 бит
Тип развёртки : Прогрессивная
Бит/(Пиксели*Кадры) : 0.158
Размер потока : 5,47 Гбайт (96%)
Язык : English
Default : Да
Forced : Нет

Аудио
Идентификатор : 2
Формат : AC-3
Формат/Информация : Audio Coding 3
Расширение режима : CM (complete main)
Параметр Endianness формата : Big
Идентификатор кодека : A_AC3
Вид битрейта : Постоянный
Битрейт : 192 Кбит/сек
Каналы : 2 канала
Расположение каналов : Front: L R
Частота : 48,0 КГц
Битовая глубина : 16 бит
Размер потока : 137 Мбайт (2%)
Язык : Russian
Default : Да
Forced : Нет

Информация о торренте
Торрент:  Зарегистрирован [10 июл 2017, 15:20] Для скачивания необходимо Зарегистрироваться!



Если Вы уже зарегистрированы, то авторизуйтесь на трекере!
Статус:  
Размер:  5.72 ГБ (6 140 981 321 байт)
Приватный:  Нет (DHT включён)
Хэш:  0d86c685cfb5a1691c85
47c0234ed68c1848d6ec
Здоровье:  100%
.torrent скачан:  11
Как тут качать  Правила, основные инструкции, FAQ-и



_________________


 Профиль  
 
Показать сообщения за:  Поле сортировки  
Начать новую тему Ответить на тему  [ 1 сообщение ] 


Кто сейчас на трекере

Сейчас этот форум просматривают: нет зарегистрированных пользователей и гости: 2


Вы не можете начинать темы
Вы не можете отвечать на сообщения
Вы не можете редактировать свои сообщения
Вы не можете удалять свои сообщения
Вы не можете добавлять вложения

Найти:
 cron

Правообладателям

!ВНИМАНИЕ!
Ресурс не предоставляет электронные версии произведений, а занимается лишь коллекционированием и каталогизацией ссылок, присылаемых и публикуемых на форуме нашими читателями. Если вы являетесь правообладателем какого-либо представленного материала и не желаете чтобы ссылка на него находилась в нашем каталоге, свяжитесь с нами и мы незамедлительно удалим её. Файлы для обмена на трекере предоставлены пользователями сайта, и администрация не несёт ответственности за их содержание. Просьба не заливать файлы, защищенные авторскими правами, а также файлы нелегального содержания!
cron
Вверх страницы
Вниз страницы
ppkBB3cker v.2 © 2008-2011 @ PPK