3d-tracker.ru • Просмотр темы - Салют-7 / 3D (2017) [BDRip, 1080p, Zoom Half OverUnder / Вертикальная анаморфная стереопара на весь экран]

Регистрация Имя: Пароль: Запомнить Забыли пароль?



Правила форума





Начать новую тему Ответить на тему  [ Сообщений: 3 ] 
Статистика раздачи
Размер: 4.66 ГБ | Зарегистрирован: 24 дек 2017, 19:03 | .torrent скачан: 65
Сиды: 16 [0 байт/сек]    Личи: 7 [0 байт/сек]
Автор Сообщение
 СообщениеДобавлено: 24 дек 2017, 19:03 
Не в сети
Супермодератор
Аватара пользователя
Зарегистрирован: 15 апр 2014, 21:21
Торренты: 519
Раздал: 35.68 ТБ 
Скачал: 1.83 ТБ 
Ратио: 30.562
Спасибо: 3002 / 212
Сообщения: 685
Комментарии: 311
Откуда: РОССИЯ, ЦФО

Название: Салют-7
Оригинальное название: Салют-7
Год выхода: 2017
Жанр: драма, приключения, триллер

Режиссер: Клим Шипенко
В ролях: Владимир Вдовиченков, Павел Деревянко, Александр Самойленко, Виталий Хаев, Оксана Фандера, Любовь Аксёнова, Роман Перелыгин, Полина Руденко, Александра Серебрякова, Мария Миронова, Наталья Кудряшова, Александр Ратников
О фильме: Космическая станция «Салют-7», находящаяся на орбите в беспилотном режиме, неожиданно перестает отвечать на сигналы центра управления полетом. Принято решение об отправке на орбиту спасательной экспедиции. Космический экипаж должен найти «мертвую» станцию и впервые в мире провести стыковку с 20-тонной глыбой неуправляемого железа. Космонавты понимают, что шансов вернуться на Землю у них немного. Но этот рискованный путь — единственно возможный. Они должны не только проникнуть на «Салют-7», но и оживить его. Смогут ли два человека предотвратить неминуемую катастрофу и спасти планету от падения станции? Спасательная экспедиция превращается в опасное испытание. На орбите разворачивается настоящий космический детектив.

Фильм основан на реальных событиях: полет к станции «Салют-7» в 1985 году считается самым сложным полетом в истории космонавтики.

Выпущено: Россия
Продолжительность: 01:46:42
Язык: Русский

Качество: BDRip (1080p) by SOLdAt
Видео: AVC / 1920х1080 / 23,976 fps / 5740 kbps
Аудио: Русский / AC3 / 48 KHz / 5.1 ch / 384 Kbps [ЛИЗЕНЗИЯ]
Размер: 4.66 Гб

Формат 3D: Half OverUnder / Вертикальная анаморфная стереопара (16:9)
Порядок ракурсов: левый ракурс - первый
Полное имя : E:\AV\SALUT7_3D.2017.1080p.ZHOU_by.SOLdAt.mkv
Формат : Matroska
Версия формата : Version 4 / Version 2
Размер файла : 4,66 Гбайт
Название фильма : САЛЮТ 7 в 3Д / 3D (2017) 1080p Zoom HOU by_ SOLdAt
Программа кодирования : mkvmerge v8.3.0 ('Over the Horizon') 64bit
Библиотека кодирования : libebml v1.3.1 + libmatroska v1.4.2
Attachements : Cover.JPG
DURATION : 01:46:42.086000000

Видео
Идентификатор : 1
Формат : AVC
Формат/Информация : Advanced Video Codec
Профиль формата : High@L4.0
Параметр CABAC формата : Да
Параметр ReFrames формата : 5 кадров
Параметр GOP формата : M=3, N=24
Идентификатор кодека : V_MPEG4/ISO/AVC
Битрейт : 5740 Кбит/сек
Ширина : 1920 пикселей
Высота : 1080 пикселей
Соотношение сторон : 16:9
Режим частоты кадров : Постоянный
Частота кадров : 23,976 кадра/сек
Цветовое пространство : YUV
Субдискретизация насыщенности : 4:2:0
Битовая глубина : 8 бит
Тип развёртки : Прогрессивная
Бит/(Пиксели*Кадры) : 0.115
Размер потока : 4,28 Гбайт (92%)
Заголовок : 1080p, ZHOU
Язык : English
Default : Да
Forced : Нет

Аудио
Идентификатор : 2
Формат : AC-3
Формат/Информация : Audio Coding 3
Расширение режима : CM (complete main)
Параметр Endianness формата : Big
Идентификатор кодека : A_AC3
Вид битрейта : Постоянный
Битрейт : 384 Кбит/сек
Каналы : 6 каналов
Расположение каналов : Front: L C R, Side: L R, LFE
Частота : 48,0 КГц
Битовая глубина : 16 бит
Размер потока : 293 Мбайт (6%)
Заголовок : 5.1 ch, 384 kbit/s - Лицензия
Язык : Russian
Default : Да
Forced : Нет

Информация о торренте
Торрент:  Зарегистрирован [24 дек 2017, 19:03] Для скачивания необходимо Зарегистрироваться!



Если Вы уже зарегистрированы, то авторизуйтесь на трекере!
Статус:  
Размер:  4.66 ГБ (5 000 778 263 байт)
Приватный:  Нет (DHT включён)
Хэш:  c3f152bf569368ad8689
6787a61ed7695c564b8f
Здоровье:  100%
.torrent скачан:  65
Как тут качать  Правила, основные инструкции, FAQ-и



_________________


 Профиль  
 
 СообщениеДобавлено: 27 дек 2017, 09:24 
Не в сети
Бывалый
Зарегистрирован: 15 май 2014, 15:05
Торренты: 38
Раздал: 2.97 ТБ 
Скачал: 1.26 ТБ 
Ратио: 2.355
Спасибо: 219 / 737
Сообщения: 138
Комментарии: 135
Cпасибки!!!!!!!!!!


 Профиль  
 
 СообщениеДобавлено: 03 янв 2018, 16:51 
Не в сети
заглянувший
Зарегистрирован: 03 янв 2018, 16:47
Торренты: 0
Раздал: 5.09 ГБ 
Скачал: 4.66 ГБ 
Ратио: None.
Спасибо: 0 / 1
Сообщения: 1
Комментарии: 1
СПАСИБО


 Профиль  
 
Показать сообщения за:  Поле сортировки  
Начать новую тему Ответить на тему  [ Сообщений: 3 ] 


Кто сейчас на трекере

Сейчас этот форум просматривают: нет зарегистрированных пользователей и гости: 2


Вы не можете начинать темы
Вы не можете отвечать на сообщения
Вы не можете редактировать свои сообщения
Вы не можете удалять свои сообщения
Вы не можете добавлять вложения

Найти:


Правообладателям

!ВНИМАНИЕ!
Ресурс не предоставляет электронные версии произведений, а занимается лишь коллекционированием и каталогизацией ссылок, присылаемых и публикуемых на форуме нашими читателями. Если вы являетесь правообладателем какого-либо представленного материала и не желаете чтобы ссылка на него находилась в нашем каталоге, свяжитесь с нами и мы незамедлительно удалим её. Файлы для обмена на трекере предоставлены пользователями сайта, и администрация не несёт ответственности за их содержание. Просьба не заливать файлы, защищенные авторскими правами, а также файлы нелегального содержания!
cron
Вверх страницы
Вниз страницы
ppkBB3cker v.2 © 2008-2011 @ PPK