3d-tracker.ru • Просмотр темы - Другой мир: Пробуждение 3Д / Underworld: Awakening 3D (2012) [BDRip, 1080p] Crop Half OverUnder / Вертикальная анаморфная стереопара (На весь экран)

Регистрация Имя: Пароль: Запомнить Забыли пароль?



Правила форума





Начать новую тему Ответить на тему  [ Сообщений: 3 ] 
Статистика раздачи
Размер: 7.33 ГБ | Зарегистрирован: 15 дек 2014, 16:06 | .torrent скачан: 54
Сиды: 21 [0 байт/сек]    Личи: 22 [0 байт/сек]
Автор Сообщение
 СообщениеДобавлено: 15 дек 2014, 16:06 
Не в сети
Супермодератор
Аватара пользователя
Зарегистрирован: 15 апр 2014, 21:21
Торренты: 426
Раздал: 30.02 ТБ 
Скачал: 1.83 ТБ 
Ратио: 27.478
Спасибо: 2391 / 157
Сообщения: 575
Комментарии: 251
Откуда: РОССИЯ, ЦФО


Название: Другой мир: Пробуждение
Оригинальное название: Underworld: Awakening
Год выпуска: 2012
Страна: США (Screen Gems, Lakeshore Entertainment, Sketch Films)
Жанр: Боевик, Фэнтези, Ужасы
Перевод: Русский профессиональный дублированный
Режиссеры: Монс Морлинд, Бьёрн Стейн

Роли исполняли (Дублировали):
Селена - Кейт Бекинсейл (Светлана Кузнецова)
Доктор Джейкоб Лэйн - Стивен Ри (Сергей Куприянов)
Детектив Себастиан - Майкл Или
Дэвид - Тео Джеймс
Ева - Индия Айли
Томас - Чарльз Дэнс (Виктор Костецкий)
Лида - Сандрин Холт
Куинт - Кристен Холден-Рид (Александр Трофимов)
Офицер Колб - Джейкоб Блэр (Олег Тилькин)

О фильме: Через 12 лет состояния, близкому к коматозному, Селин узнает о существовании родной дочери Евы — гибрида вампира и ликана. И Селин необходимо помешать БиоКом создать суперликанов, которые убьют их всех.

Качество: BDRip[1080р]
Видео: MPEG-4 AVC, 13,0 Мбит/с, 23.976 кадр/с
Аудио: Русский АС3, 6 ch, 448 Кбит/с
Размер: 7,33 Гб
Продолжительность: 01:17:56

Формат 3D: Crop Half OverUnder / Вертикальная анаморфная стереопара Без черных полос (На весь экран)
Порядок ракурсов: левый ракурс первый.
Контейнер: Matroska

Полное имя : D:\Раздача\Другой мир-Пробуждение [Crop HOU].mkv
Формат : Matroska
Версия формата : Version 4 / Version 2
Размер файла : 7,33 Гбайт
Продолжительность : 1 ч. 17 м.
Общий поток : 13,5 Мбит/сек
Название фильма : Другой мир: Пробуждение
Дата кодирования : UTC 2014-12-15
Программа кодирования : mkvmerge v7.4.0 ('Circles') 64bit
Библиотека кодирования : Lavf55.37.101

Видео
Идентификатор : 1
Формат : AVC
Формат/Информация : Advanced Video Codec
Профиль формата : High@L4.1
Параметр CABAC формата : Да
Параметр ReFrames формата : 4 кадра
Идентификатор кодека : V_MPEG4/ISO/AVC
Продолжительность : 1 ч. 17 м.
Битрейт : 13,0 Мбит/сек
Ширина : 1920 пикселей
Высота : 1080 пикселей
Соотношение сторон : 16:9
Режим частоты кадров : Постоянный
Частота кадров : 23,976 кадра/сек
Цветовое пространство : YUV
Субдискретизация насыщенности : 4:2:0
Битовая глубина : 8 бит
Тип развёртки : Прогрессивная
Бит/(Пиксели*Кадры) : 0.261
Размер потока : 6,94 Гбайт (95%)
Заголовок : Rip by SOLdAt
Библиотека кодирования : x264 core 119
Язык : Russian
Default : Да

Аудио
Идентификатор : 2
Формат : AC-3
Формат/Информация : Audio Coding 3
Расширение режима : CM (complete main)
Параметр Endianness формата : Big
Идентификатор кодека : A_AC3
Продолжительность : 1 ч. 17 м.
Вид битрейта : Постоянный
Битрейт : 448 Кбит/сек
Каналы : 6 каналов
Расположение каналов : Front: L C R, Side: L R, LFE
Частота : 48,0 КГц
Битовая глубина : 16 бит
Размер потока : 250 Мбайт (3%)
Заголовок : 6 ch, 448 kb/s
Язык : Russian
Default : Да

Информация о торренте
Торрент:  Зарегистрирован [15 дек 2014, 16:06] Для скачивания необходимо Зарегистрироваться!



Если Вы уже зарегистрированы, то авторизуйтесь на трекере!
Статус:   изменил Гость (21 дек 2014, 14:35)
Размер:  7.33 ГБ (7 866 162 858 байт)
Приватный:  Нет (DHT включён)
Хэш:  05d5a20f9ad2fc3d1210
8672a1bb2dc805d880f9
Здоровье:  95%
.torrent скачан:  54
Как тут качать  Правила, основные инструкции, FAQ-и



_________________


 Профиль  
 
 СообщениеДобавлено: 04 дек 2016, 15:10 
Не в сети
заглянувший
Аватара пользователя
Зарегистрирован: 09 июл 2012, 21:22
Торренты: 0
Раздал: 4.46 ТБ 
Скачал: 577.94 ГБ 
Ратио: 8.504
Спасибо: 0 / 8
Сообщения: 3
Комментарии: 6
Откуда: Москва
Здравствуйте. Кто не будь даст мне скачать ДРУГОЙ МИР 4 -ВОЗРОЖДЕНИЕ


 Профиль  
 
 СообщениеДобавлено: 05 дек 2016, 10:46 
Не в сети
Супермодератор
Аватара пользователя
Зарегистрирован: 15 апр 2014, 21:21
Торренты: 426
Раздал: 30.02 ТБ 
Скачал: 1.83 ТБ 
Ратио: 27.478
Спасибо: 2391 / 157
Сообщения: 575
Комментарии: 251
Откуда: РОССИЯ, ЦФО
Есть только 720р(Горизонт)-делал для себя!Загрузил на бесплатный файлообменник!
Ссыль - сбросил в ЛС!

_________________


 Профиль  
 
Показать сообщения за:  Поле сортировки  
Начать новую тему Ответить на тему  [ Сообщений: 3 ] 


Кто сейчас на трекере

Сейчас этот форум просматривают: нет зарегистрированных пользователей и гости: 1


Вы не можете начинать темы
Вы не можете отвечать на сообщения
Вы не можете редактировать свои сообщения
Вы не можете удалять свои сообщения
Вы не можете добавлять вложения

Найти:


Правообладателям

!ВНИМАНИЕ!
Ресурс не предоставляет электронные версии произведений, а занимается лишь коллекционированием и каталогизацией ссылок, присылаемых и публикуемых на форуме нашими читателями. Если вы являетесь правообладателем какого-либо представленного материала и не желаете чтобы ссылка на него находилась в нашем каталоге, свяжитесь с нами и мы незамедлительно удалим её. Файлы для обмена на трекере предоставлены пользователями сайта, и администрация не несёт ответственности за их содержание. Просьба не заливать файлы, защищенные авторскими правами, а также файлы нелегального содержания!
cron
Вверх страницы
Вниз страницы
ppkBB3cker v.2 © 2008-2011 @ PPK