3d-tracker.ru • Просмотр темы - Стартрек: Бесконечность в 3Д / Star Trek Beyond 3D (2016) [BDRip, by Ash61, Half OverUnder / Вертикальная анаморфная стереопара]

Регистрация Имя: Пароль: Запомнить Забыли пароль?



Правила форума





Начать новую тему Ответить на тему  [ 1 сообщение ] 
Статистика раздачи
Размер: 9.18 ГБ | Зарегистрирован: 26 окт 2016, 09:47 | .torrent скачан: 8
Сиды: 4 [0 байт/сек]    Личи: 0 [0 байт/сек]
Автор Сообщение
 СообщениеДобавлено: 26 окт 2016, 09:47 
Не в сети
Супермодератор
Аватара пользователя
Зарегистрирован: 15 апр 2014, 21:21
Торренты: 368
Раздал: 28.8 ТБ 
Скачал: 1.83 ТБ 
Ратио: 26.812
Спасибо: 1964 / 111
Сообщения: 519
Комментарии: 233
Откуда: РОССИЯ, ЦФО

Название: Стартрек: Бесконечность
Оригинальное название: Star Trek Beyond
Год выпуска: 2016
Жанр: Фантастика, боевик, триллер, приключения
Выпущено: США, Bad Robot, Paramount Pictures, Perfect Storm Entertainment, Skydance Productions, Sneaky Shark

Режиссер: Джастин Лин
В ролях: Крис Пайн, Закари Куинто, Саймон Пегг, Карл Урбан, Зои Салдана, Джон Чо, Антон Ельчин, Идрис Эльба, София Бутелла, Джо Таслим
О фильме: И вновь героический экипаж "Энтерпрайза" вступает на трудовую вахту, неся разумное, доброе, вечное в глубины неизведанного космоса. На сей раз им придется столкнуться с враждебным вихрем невиданных доселе темных сил и постараться выжить на затерянной в звездных далях планете. Проявляя моральную устойчивость, политическую грамотность и скромность в быту, капитан Кирк и его сподвижники раскрывают чудовищный заговор, угрожающий существованию не только Федерации, но и всех обитаемых миров.
Продолжительность: 02:02:22
Перевод: Дублированный
Размер: 9.18 ГБ

Качество: BDRip (by Ash61)
Видео: MPEG-4 AVC, 9250 Кбит/с, 1920x804
Аудио:
#1 - Русский / AC3 / 48 KHz / 5.1 ch / 640 Kbps (Дубляж - [источник - BlueBird])
#2 - Английский / AC3 / 48 KHz / 5.1 ch / 640 Kbps (Original - BD 3D)
Субтитры: Русские, английские
Субтитры (SRT):
Вшитые (softsub):
#1 - Русские Форсированные [расширенные] (включены по умолчанию)
#2 - Русские Полные (iTunes)
#3 - Русские Полные (Notabenoid)
#4 - English Full
#5 - English SDH
#6 - English SDH-Colored
Внешние (UTF-8):
#1 - Русские Форсированные [расширенные] (включены по умолчанию)

Формат 3D: Half OverUnder / Вертикальная анаморфная стереопара
Порядок ракурсов: Верхний ракурс - первый

Complete name : E:\StarTrekBeyond(2016)3D-halfOU(Ash61)Unknown\StarTrekBeyond(2016)3D-halfOU(Ash61)Unknown.mkv
Format : Matroska
Format version : Version 2
File size : 9.18 GiB
Duration : 2h 2mn
Overall bit rate : 10.7 Mbps
Movie name : Стартрек: Бесконечность / Star Trek Beyond (2016) в 3Д
Encoded date : UTC 2016-10-25 17:19:26
Writing application : mkvmerge v5.8.0 ('No Sleep / Pillow') built on Sep 2 2012 15:37:04
Writing library : libebml v1.2.3 + libmatroska v1.3.0

Video
ID : 1
Format : AVC
Format/Info : Advanced Video Codec
Format profile : High@L4.1
Format settings, CABAC : Yes
Format settings, ReFrames : 4 frames
Codec ID : V_MPEG4/ISO/AVC
Duration : 2h 2mn
Bit rate : 9 250 Kbps
Width : 1 920 pixels
Height : 1 080 pixels
Display aspect ratio : 16:9
Frame rate mode : Constant
Frame rate : 23.976 fps
Color space : YUV
Chroma subsampling : 4:2:0
Bit depth : 8 bits
Scan type : Progressive
Bits/(Pixel*Frame) : 0.186
Stream size : 7.91 GiB (86%)
Title : BDRip by Ash61
Writing library : x264 core 146 r2538 121396c
Encoding settings : cabac=1 / ref=4 / deblock=1:-3:-3 / analyse=0x3:0x113 / me=umh / subme=10 / psy=1 / psy_rd=1.00:0.00 / mixed_ref=1 / me_range=32 / chroma_me=1 / trellis=2 / 8x8dct=1 / cqm=0 / deadzone=21,11 / fast_pskip=1 / chroma_qp_offset=-2 / threads=12 / lookahead_threads=2 / sliced_threads=0 / nr=0 / decimate=1 / interlaced=0 / bluray_compat=0 / constrained_intra=0 / bframes=8 / b_pyramid=2 / b_adapt=2 / b_bias=0 / direct=3 / weightb=1 / open_gop=0 / weightp=2 / keyint=250 / keyint_min=23 / scenecut=40 / intra_refresh=0 / rc_lookahead=60 / rc=crf / mbtree=1 / crf=16.0 / qcomp=0.70 / qpmin=0 / qpmax=69 / qpstep=4 / vbv_maxrate=40000 / vbv_bufsize=30000 / crf_max=0.0 / nal_hrd=none / filler=0 / frame-packing=4 / ip_ratio=1.40 / aq=1:0.70
Language : English
Default : Yes
Forced : No

Audio #1
ID : 2
Format : AC-3
Format/Info : Audio Coding 3
Mode extension : CM (complete main)
Format settings, Endianness : Big
Codec ID : A_AC3
Duration : 2h 2mn
Bit rate mode : Constant
Bit rate : 640 Kbps
Channel(s) : 6 channels
Channel positions : Front: L C R, Side: L R, LFE
Sampling rate : 48.0 KHz
Bit depth : 16 bits
Compression mode : Lossy
Stream size : 560 MiB (6%)
Title : Дубляж (исходник неизвестен, источник - BlueBird)
Language : Russian
Default : Yes
Forced : No

Audio #2
ID : 3
Format : AC-3
Format/Info : Audio Coding 3
Mode extension : CM (complete main)
Format settings, Endianness : Big
Codec ID : A_AC3
Duration : 2h 2mn
Bit rate mode : Constant
Bit rate : 640 Kbps
Channel(s) : 6 channels
Channel positions : Front: L C R, Side: L R, LFE
Sampling rate : 48.0 KHz
Bit depth : 16 bits
Compression mode : Lossy
Stream size : 560 MiB (6%)
Title : Original - BD 3D
Language : English
Default : No
Forced : No

Text #1
ID : 4
Format : UTF-8
Codec ID : S_TEXT/UTF8
Codec ID/Info : UTF-8 Plain Text
Title : Форсированные (расширенные)
Language : Russian
Default : Yes
Forced : No

Text #2
ID : 5
Format : UTF-8
Codec ID : S_TEXT/UTF8
Codec ID/Info : UTF-8 Plain Text
Title : Полные (iTunes)
Language : Russian
Default : No
Forced : No

Text #3
ID : 6
Format : UTF-8
Codec ID : S_TEXT/UTF8
Codec ID/Info : UTF-8 Plain Text
Title : Полные (Notabenoid)
Language : Russian
Default : No
Forced : No

Text #4
ID : 7
Format : UTF-8
Codec ID : S_TEXT/UTF8
Codec ID/Info : UTF-8 Plain Text
Title : Full
Language : English
Default : No
Forced : No

Text #5
ID : 8
Format : UTF-8
Codec ID : S_TEXT/UTF8
Codec ID/Info : UTF-8 Plain Text
Title : SDH
Language : English
Default : No
Forced : No

Text #6
ID : 9
Format : UTF-8
Codec ID : S_TEXT/UTF8
Codec ID/Info : UTF-8 Plain Text
Title : SDH-Colored
Language : English
Default : No
Forced : No

Menu
00:00:00.000 : :1
00:08:26.548 : :2
00:16:11.637 : :3
00:32:38.290 : :4
00:42:16.367 : :5
00:52:22.264 : :6
00:59:50.629 : :7
01:12:05.530 : :8
01:22:34.449 : :9
01:33:00.950 : :10
01:40:33.319 : :11
01:47:38.994 : :12
01:52:32.663 : :13
01:55:41.351 : :14


Информация о торренте
Торрент:  Зарегистрирован [26 окт 2016, 09:47] Для скачивания необходимо Зарегистрироваться!



Если Вы уже зарегистрированы, то авторизуйтесь на трекере!
Статус:  
Размер:  9.18 ГБ (9 860 116 262 байт)
Приватный:  Нет (DHT включён)
Хэш:  9506674ea1d0d79f376e
fc5d5d488f8ea963909b
Здоровье:  100%
.torrent скачан:  8
Как тут качать  Правила, основные инструкции, FAQ-и



_________________


 Профиль  
 
Показать сообщения за:  Поле сортировки  
Начать новую тему Ответить на тему  [ 1 сообщение ] 


Кто сейчас на трекере

Сейчас этот форум просматривают: Yandex [Bot] и гости: 2


Вы не можете начинать темы
Вы не можете отвечать на сообщения
Вы не можете редактировать свои сообщения
Вы не можете удалять свои сообщения
Вы не можете добавлять вложения

Найти:


Правообладателям

!ВНИМАНИЕ!
Ресурс не предоставляет электронные версии произведений, а занимается лишь коллекционированием и каталогизацией ссылок, присылаемых и публикуемых на форуме нашими читателями. Если вы являетесь правообладателем какого-либо представленного материала и не желаете чтобы ссылка на него находилась в нашем каталоге, свяжитесь с нами и мы незамедлительно удалим её. Файлы для обмена на трекере предоставлены пользователями сайта, и администрация не несёт ответственности за их содержание. Просьба не заливать файлы, защищенные авторскими правами, а также файлы нелегального содержания!
cron
Вверх страницы
Вниз страницы
ppkBB3cker v.2 © 2008-2011 @ PPK