3d-tracker.ru • Просмотр темы - Звёздные войны: Пробуждение силы в 3Д / Star Wars: Episode VII - The Force Awakens 3D (2015) [BDRip, Half Side-by-Side / Горизонтальная анаморфная стереопара]

Регистрация Имя: Пароль: Запомнить Забыли пароль?



Правила форума





Начать новую тему Ответить на тему  [ 1 сообщение ] 
Статистика раздачи
Размер: 16.76 ГБ | Зарегистрирован: 28 окт 2016, 15:57 | .torrent скачан: 18
Сиды: 3 [0 байт/сек]    Личи: 2 [0 байт/сек]
Автор Сообщение
 СообщениеДобавлено: 28 окт 2016, 15:57 
Не в сети
Супермодератор
Аватара пользователя
Зарегистрирован: 15 апр 2014, 21:21
Торренты: 411
Раздал: 29.95 ТБ 
Скачал: 1.83 ТБ 
Ратио: 27.440
Спасибо: 2260 / 146
Сообщения: 563
Комментарии: 250
Откуда: РОССИЯ, ЦФО

Название: Звёздные войны: Пробуждение силы
Оригинальное название: Star Wars: Episode VII - The Force Awakens
Год выпуска: 2015
Жанр: Фантастика, фэнтези, боевик, приключения
Выпущено: США, Bad Robot, Lucasfilm Ltd., Truenorth Productions

Режиссер: Джей Джей Абрамс
В ролях: Джон Бойега, Дэйзи Ридли, Оскар Айзек, Адам Драйвер, Донал Глисон, Харрисон Форд, Марк Хэмилл, Кэрри Фишер, Макс фон Сюдов, Энди Серкис,Лупита Нионго, Энтони Дэниелс, Питер Мейхью, Гвендолин Кристи, Пип Андерсон, Саймон Пегг, Киран Шах, Саша Фрост, Пип Торренс, Эндрю Джек
О фильме: Через тридцать лет после гибели Дарта Вейдера и Императора галактика по-прежнему в опасности. Государственное образование Новый Порядок во главе с их таинственным верховным лидером Сноуком и его правой рукой Кайло Реном идёт по стопам Империи, пытаясь захватить всю власть. В это нелёгкое время судьба сводит юную девушку Рей и бывшего штурмовика Нового Порядка Финна с героями времён войны с Империей — Ханом Соло, Чубаккой и Королевой Леей. Вместе они должны дать бой Новому Порядку, однако настаёт тот момент, когда становится очевидно, что лишь джедаи могут остановить Сноука и Кайло Рена. И в галактике в живых остаётся только один…

Качество: BDRip (1080p) by SOLdAt
Видео: AVC, 15500 Кбит/с, 1920x800
Аудио: Русский (AC3, 6 ch, 448 Кбит/с), английский (DTS, 6 ch, 1509 Кбит/с)
Размер: 16.8 ГБ
Продолжительность: 02:18:06
Перевод: Дублированный

Формат 3D: Anamorph SideBySide / Горизонтальная анаморфная стереопара
Порядок ракурсов: левый ракурс - первый
Полное имя :E:\AV\Star.Wars.Episode.VII.The.Force.Awakens.2015.800p.3D.HSBS.mkv
Формат : Matroska
Версия формата : Version 4 / Version 2
Размер файла : 16,8 Гбайт
Продолжительность : 2 ч. 18 м.
Общий поток : 17,4 Мбит/сек
Название фильма : Star.Wars.Episode.VII.The.Force.Awakens.2015.1080p.3D.BluRay.Half-SBS
Дата кодирования : UTC 2016-10-28 09:56:37
Программа кодирования : mkvmerge v7.1.0 ('Good Love') 64bit
Библиотека кодирования : libebml v1.3.0 + libmatroska v1.4.1
Attachements : cover_land.jpg / small_cover.jpg / small_cover_land.jpg / cover.jpg
DURATION : 02:18:06.038000000

Видео
Идентификатор : 1
Формат : AVC
Формат/Информация : Advanced Video Codec
Профиль формата : High@L4.1
Параметр CABAC формата : Да
Параметр ReFrames формата : 2 кадра
Идентификатор кодека : V_MPEG4/ISO/AVC
Продолжительность : 2 ч. 18 м.
Битрейт : 15,5 Мбит/сек
Ширина : 1920 пикселей
Высота : 1080 пикселей
Соотношение сторон : 16:9
Режим частоты кадров : Постоянный
Частота кадров : 23,976 кадра/сек
Цветовое пространство : YUV
Субдискретизация насыщенности : 4:2:0
Битовая глубина : 8 бит
Тип развёртки : Прогрессивная
Бит/(Пиксели*Кадры) : 0.312
Размер потока : 14,5 Гбайт (87%)
Заголовок : Star.Wars.Episode.VII.The.Force.Awakens.2015.1080p.3D.BluRay.Half-SBS.x264
Библиотека кодирования : x264 core 142
Язык : English
Default : Да
Forced : Нет
Основные цвета : BT.709
Характеристики трансфера : BT.709
Коэффициенты матрицы : BT.709
colour_range : Limited

Аудио #1
Идентификатор : 2
Формат : AC-3
Формат/Информация : Audio Coding 3
Расширение режима : CM (complete main)
Параметр Endianness формата : Big
Идентификатор кодека : A_AC3
Продолжительность : 2 ч. 18 м.
Вид битрейта : Постоянный
Битрейт : 448 Кбит/сек
Каналы : 6 каналов
Расположение каналов : Front: L C R, Side: L R, LFE
Частота : 48,0 КГц
Битовая глубина : 16 бит
Размер потока : 443 Мбайт (3%)
Заголовок : 6 ch, 448 kb/s
Язык : Russian
Default : Да
Forced : Нет

Аудио #2
Идентификатор : 3
Формат : DTS
Формат/Информация : Digital Theater Systems
Режим : 16
Параметр Endianness формата : Big
Идентификатор кодека : A_DTS
Продолжительность : 2 ч. 18 м.
Вид битрейта : Постоянный
Битрейт : 1509 Кбит/сек
Каналы : 6 каналов
Расположение каналов : Front: L C R, Side: L R, LFE
Частота : 48,0 КГц
Битовая глубина : 24 бит
Размер потока : 1,46 Гбайт (9%)
Язык : English
Default : Нет
Forced : Нет

Информация о торренте
Торрент:  Зарегистрирован [28 окт 2016, 15:57] Для скачивания необходимо Зарегистрироваться!



Если Вы уже зарегистрированы, то авторизуйтесь на трекере!
Статус:  
Размер:  16.76 ГБ (17 994 518 254 байт)
Приватный:  Нет (DHT включён)
Хэш:  c8a8b8d528d6bd6a9d58
1eeb3f04bef12b8fe9f8
Здоровье:  100%
.torrent скачан:  18
Как тут качать  Правила, основные инструкции, FAQ-и



_________________


 Профиль  
 
Показать сообщения за:  Поле сортировки  
Начать новую тему Ответить на тему  [ 1 сообщение ] 


Кто сейчас на трекере

Сейчас этот форум просматривают: Google [Bot] и гости: 1


Вы не можете начинать темы
Вы не можете отвечать на сообщения
Вы не можете редактировать свои сообщения
Вы не можете удалять свои сообщения
Вы не можете добавлять вложения

Найти:


Правообладателям

!ВНИМАНИЕ!
Ресурс не предоставляет электронные версии произведений, а занимается лишь коллекционированием и каталогизацией ссылок, присылаемых и публикуемых на форуме нашими читателями. Если вы являетесь правообладателем какого-либо представленного материала и не желаете чтобы ссылка на него находилась в нашем каталоге, свяжитесь с нами и мы незамедлительно удалим её. Файлы для обмена на трекере предоставлены пользователями сайта, и администрация не несёт ответственности за их содержание. Просьба не заливать файлы, защищенные авторскими правами, а также файлы нелегального содержания!
cron
Вверх страницы
Вниз страницы
ppkBB3cker v.2 © 2008-2011 @ PPK