3d-tracker.ru • Просмотр темы - Звёздные войны: Пробуждение силы в 3Д / Star Wars: Episode VII - The Force Awakens 3D (2015) [BDRip, Half Side-by-Side / Горизонтальная анаморфная стереопара на весь экран]

Регистрация Имя: Пароль: Запомнить Забыли пароль?



Правила форума





Начать новую тему Ответить на тему  [ Сообщений: 4 ] 
Статистика раздачи
Размер: 8.83 ГБ | Зарегистрирован: 29 окт 2016, 09:04 | .torrent скачан: 14
Сиды: 3 [0 байт/сек]    Личи: 0 [0 байт/сек]
Автор Сообщение
 СообщениеДобавлено: 29 окт 2016, 09:04 
Не в сети
Супермодератор
Аватара пользователя
Зарегистрирован: 15 апр 2014, 21:21
Торренты: 451
Раздал: 34.37 ТБ 
Скачал: 1.83 ТБ 
Ратио: 29.850
Спасибо: 2559 / 175
Сообщения: 594
Комментарии: 267
Откуда: РОССИЯ, ЦФО

Название: Звёздные войны: Пробуждение силы
Оригинальное название: Star Wars: Episode VII - The Force Awakens
Год выпуска: 2015
Жанр: Фантастика, фэнтези, боевик, приключения
Выпущено: США, Bad Robot, Lucasfilm Ltd., Truenorth Productions

Режиссер: Джей Джей Абрамс
В ролях: Джон Бойега, Дэйзи Ридли, Оскар Айзек, Адам Драйвер, Донал Глисон, Харрисон Форд, Марк Хэмилл, Кэрри Фишер, Макс фон Сюдов, Энди Серкис,Лупита Нионго, Энтони Дэниелс, Питер Мейхью, Гвендолин Кристи, Пип Андерсон, Саймон Пегг, Киран Шах, Саша Фрост, Пип Торренс, Эндрю Джек
О фильме: Через тридцать лет после гибели Дарта Вейдера и Императора галактика по-прежнему в опасности. Государственное образование Новый Порядок во главе с их таинственным верховным лидером Сноуком и его правой рукой Кайло Реном идёт по стопам Империи, пытаясь захватить всю власть. В это нелёгкое время судьба сводит юную девушку Рей и бывшего штурмовика Нового Порядка Финна с героями времён войны с Империей — Ханом Соло, Чубаккой и Королевой Леей. Вместе они должны дать бой Новому Порядку, однако настаёт тот момент, когда становится очевидно, что лишь джедаи могут остановить Сноука и Кайло Рена. И в галактике в живых остаётся только один…

Качество: BDRip (1080p) by SOLdAt
Видео: AVC, ~7700 Кбит/с, 1920x1080, 23,976 кадра/сек
Аудио: Русский (AC3, 6 ch, 640 Кбит/с), английский (AC3, 6 ch, 640 Кбит/с)
Размер: 8,83 Gb
Продолжительность: 02:18:06
Перевод: Дублированный
Субтитры: Русские(форсированные), английские (SDH)

Формат 3D: Zoom Anamorph SideBySide / Горизонтальная анаморфная стереопара (16:9)
Порядок ракурсов: левый ракурс - первый
Полное имя : E:\AV\SW7.2015.3D.1080p.HSBS.mkv
Формат : Matroska
Версия формата : Version 4 / Version 2
Размер файла : 8,83 Гбайт
Продолжительность : 2 ч. 18 м.
Общий поток : 9149 Кбит/сек
Название фильма : THE_FORCE_AWAKENS_-_BLU-RAY
Дата кодирования : UTC 2016-10-29 03:02:48
Программа кодирования : mkvmerge v8.3.0 ('Over the Horizon') 64bit
Библиотека кодирования : libebml v1.3.1 + libmatroska v1.4.2
DURATION : 02:18:06.695000000

Видео
Идентификатор : 1
Формат : AVC
Формат/Информация : Advanced Video Codec
Профиль формата : High@L4.0
Параметр CABAC формата : Да
Параметр ReFrames формата : 2 кадра
Идентификатор кодека : V_MPEG4/ISO/AVC
Продолжительность : 2 ч. 18 м.
Битрейт : 7687 Кбит/сек
Ширина : 1920 пикселей
Высота : 1080 пикселей
Соотношение сторон : 16:9
Режим частоты кадров : Постоянный
Частота кадров : 23,976 кадра/сек
Цветовое пространство : YUV
Субдискретизация насыщенности : 4:2:0
Битовая глубина : 8 бит
Тип развёртки : Прогрессивная
Бит/(Пиксели*Кадры) : 0.155
Размер потока : 7,42 Гбайт (84%)
Заголовок : 1080p, hsbs
Язык : English
Default : Да
Forced : Нет
Аудио #1
Идентификатор : 2
Формат : AC-3
Формат/Информация : Audio Coding 3
Расширение режима : CM (complete main)
Параметр Endianness формата : Big
Идентификатор кодека : A_AC3
Продолжительность : 2 ч. 18 м.
Вид битрейта : Постоянный
Битрейт : 640 Кбит/сек
Каналы : 6 каналов
Расположение каналов : Front: L C R, Side: L R, LFE
Частота : 48,0 КГц
Битовая глубина : 16 бит
Метод сжатия : С потерями
Размер потока : 632 Мбайт (7%)
Заголовок : 6 ch, 640 kb/s
Язык : Russian
Default : Да
Forced : Нет
Аудио #2
Идентификатор : 3
Формат : AC-3
Формат/Информация : Audio Coding 3
Расширение режима : CM (complete main)
Параметр Endianness формата : Big
Идентификатор кодека : A_AC3
Продолжительность : 2 ч. 18 м.
Вид битрейта : Постоянный
Битрейт : 640 Кбит/сек
Каналы : 6 каналов
Расположение каналов : Front: L C R, Side: L R, LFE
Частота : 48,0 КГц
Битовая глубина : 16 бит
Метод сжатия : С потерями
Задержка видео : 27 мс.
Размер потока : 632 Мбайт (7%)
Заголовок : 6 ch, 640 kb/s
Язык : English
Default : Нет
Forced : Нет
Текст #1
Идентификатор : 4
Формат : UTF-8
Идентификатор кодека : S_TEXT/UTF8
Идентификатор кодека/Информация : UTF-8 Plain Text
Заголовок : Forced Russian
Язык : Russian
Default : Да
Forced : Нет
Текст #2
Идентификатор : 5
Формат : UTF-8
Идентификатор кодека : S_TEXT/UTF8
Идентификатор кодека/Информация : UTF-8 Plain Text
Заголовок : SDH
Язык : English
Default : Нет
Forced : Нет

Информация о торренте
Торрент:  Зарегистрирован [29 окт 2016, 09:04] Для скачивания необходимо Зарегистрироваться!



Если Вы уже зарегистрированы, то авторизуйтесь на трекере!
Статус:  
Размер:  8.83 ГБ (9 477 074 236 байт)
Приватный:  Нет (DHT включён)
Хэш:  501e66fca93f7da7ec42
b08f11af2b94455ef19e
Здоровье:  100%
.torrent скачан:  14
Как тут качать  Правила, основные инструкции, FAQ-и



_________________


 Профиль  
 
 СообщениеДобавлено: 29 окт 2016, 09:06 
Не в сети
Супермодератор
Аватара пользователя
Зарегистрирован: 15 апр 2014, 21:21
Торренты: 451
Раздал: 34.37 ТБ 
Скачал: 1.83 ТБ 
Ратио: 29.850
Спасибо: 2559 / 175
Сообщения: 594
Комментарии: 267
Откуда: РОССИЯ, ЦФО
Релиз - купирован (обрезана картинка) к состоянию 16:9 (с сохранением пропорций)

_________________


 Профиль  
 
 СообщениеДобавлено: 31 окт 2016, 09:48 
Не в сети
Бывалый
Зарегистрирован: 15 май 2014, 15:05
Торренты: 37
Раздал: 2.93 ТБ 
Скачал: 1.24 ТБ 
Ратио: 2.362
Спасибо: 212 / 645
Сообщения: 127
Комментарии: 124
Давно - не видела горизонталку на весь экран!
Большой труд!Это вертикалку легко сделать-а горизонталку-попотеть! :bra_vo: :co_ol:


 Профиль  
 
 СообщениеДобавлено: 21 апр 2017, 13:08 
Не в сети
заглянувший
Зарегистрирован: 21 апр 2017, 12:56
Торренты: 0
Раздал: 5 ГБ 
Скачал: 0 байт 
Ратио: None.
Спасибо: 0 / 0
Сообщения: 2
Комментарии: 2
Это потрясающе


 Профиль  
 
Показать сообщения за:  Поле сортировки  
Начать новую тему Ответить на тему  [ Сообщений: 4 ] 


Кто сейчас на трекере

Сейчас этот форум просматривают: нет зарегистрированных пользователей и гости: 3


Вы не можете начинать темы
Вы не можете отвечать на сообщения
Вы не можете редактировать свои сообщения
Вы не можете удалять свои сообщения
Вы не можете добавлять вложения

Найти:


Правообладателям

!ВНИМАНИЕ!
Ресурс не предоставляет электронные версии произведений, а занимается лишь коллекционированием и каталогизацией ссылок, присылаемых и публикуемых на форуме нашими читателями. Если вы являетесь правообладателем какого-либо представленного материала и не желаете чтобы ссылка на него находилась в нашем каталоге, свяжитесь с нами и мы незамедлительно удалим её. Файлы для обмена на трекере предоставлены пользователями сайта, и администрация не несёт ответственности за их содержание. Просьба не заливать файлы, защищенные авторскими правами, а также файлы нелегального содержания!
cron
Вверх страницы
Вниз страницы
ppkBB3cker v.2 © 2008-2011 @ PPK