3d-tracker.ru • Просмотр темы - Старые Воры VII: Пятьдесят Оттенков Дрюлика в 3Д / Star Wars: Episode VII-The Force Awakens 3D (2015) [BDRip, 1080р, Half OverUnder / Вертикальная анаморфная стереопара на весь экран]

Регистрация Имя: Пароль: Запомнить Забыли пароль?



Правила форума





Начать новую тему Ответить на тему  [ 1 сообщение ] 
Статистика раздачи
Размер: 9.64 ГБ | Зарегистрирован: 30 окт 2016, 10:25 | .torrent скачан: 2
Сиды: 1 [0 байт/сек]    Личи: 1 [0 байт/сек]
Автор Сообщение
 СообщениеДобавлено: 30 окт 2016, 10:25 
Не в сети
Супермодератор
Аватара пользователя
Зарегистрирован: 15 апр 2014, 21:21
Торренты: 368
Раздал: 28.8 ТБ 
Скачал: 1.83 ТБ 
Ратио: 26.812
Спасибо: 1964 / 111
Сообщения: 519
Комментарии: 233
Откуда: РОССИЯ, ЦФО

Название: Старые Воры VII: Пятьдесят Оттенков Дрюлика
Оригинальное название: Star Wars: Episode VII - The Force Awakens
Год выпуска: 2015
Жанр: Пародия, комедия, фантастика, фэнтези, боевик, приключения
Выпущено: США, Bad Robot, Lucasfilm Ltd., Truenorth Productions

Режиссер: Джей Джей Абрамс
В ролях: Джон Бойега, Дэйзи Ридли, Оскар Айзек, Адам Драйвер, Донал Глисон, Харрисон Форд, Марк Хэмилл, Кэрри Фишер, Макс фон Сюдов, Энди Серкис, Лупита Нионго, Энтони Дэниелс, Питер Мейхью, Гвендолин Кристи, Пип Андерсон, Саймон Пегг, Киран Шах, Саша Фрост, Пип Торренс, Эндрю Джек
О фильме: История Глюка Сковородкина продолжается без его участия и против его желания. Галактика празднует тридцать лет со дня победы над Императором Пал Палычем, а один бессовестный предатель по имени Фин ставит свои личные интересы выше государственных. Надо сказать, что наш черный друг оказывается в ненужное время, в ненужном месте, и вообще - по его вине высший офицер ВСГ Дрюлик поломал с десяток табуреток, а это многого стоит! Возможно, в конце концов Фин бы и раскаялся в своих прегрешениях, но на его пути встречается девочка Лучана - пионерка до мозга костей, с частичной амнезией и кучей странностей в нагрузку. И дальнейший путь им предстоит проделать вместе. А путь неблизкий...
Продолжительность: 02:08:20
Перевод: Любительский многоголосый (смешной перевод ТО Гонфильм)

Релиз от Альянса Вольных Переводчиков.
Присутствует нецензурная лексика.

Качество: BDRip (1080p) by SOLdAt
Видео: AVC, 10300 Кбит/с, 1920х1080, 24.000 кадр/с
Аудио: АС3, 2 ch, 256 Кбит/с
Размер: 9,64 Гб

Имеются вставки псевдо 3Д (около 5 минут)

Формат 3D: Half OverUnder / Вертикальная анаморфная стереопара (16:9)
Порядок ракурсов: Верхний-первый
Полное имя : E:\AV\Starye.vory.VII.3D.2015.1080p.Z.H-OU.mkv
Формат : Matroska
Версия формата : Version 4 / Version 2
Размер файла : 9,64 Гбайт
Продолжительность : 2 ч. 8 м.
Общий поток : 10,7 Мбит/сек
Название фильма : from SOLdAt - 30/10/16
Дата кодирования : UTC 2016-10-30 03:03:35
Программа кодирования : mkvmerge v8.3.0 ('Over the Horizon') 64bit
Библиотека кодирования : libebml v1.3.1 + libmatroska v1.4.2
DURATION : 02:08:19.935000000

Видео
Идентификатор : 1
Формат : AVC
Формат/Информация : Advanced Video Codec
Профиль формата : High@L4.0
Параметр CABAC формата : Да
Параметр ReFrames формата : 2 кадра
Параметр GOP формата : M=3, N=24
Идентификатор кодека : V_MPEG4/ISO/AVC
Продолжительность : 2 ч. 8 м.
Битрейт : 10,3 Мбит/сек
Ширина : 1920 пикселей
Высота : 1080 пикселей
Соотношение сторон : 16:9
Режим частоты кадров : Постоянный
Частота кадров : 24,000 кадра/сек
Цветовое пространство : YUV
Субдискретизация насыщенности : 4:2:0
Битовая глубина : 8 бит
Тип развёртки : Прогрессивная
Бит/(Пиксели*Кадры) : 0.207
Размер потока : 9,21 Гбайт (96%)
Заголовок : 3D-HOU-1080p
Язык : English
Default : Да
Forced : Нет

Аудио
Идентификатор : 2
Формат : AC-3
Формат/Информация : Audio Coding 3
Расширение режима : CM (complete main)
Параметр Endianness формата : Big
Идентификатор кодека : A_AC3
Продолжительность : 2 ч. 8 м.
Вид битрейта : Постоянный
Битрейт : 256 Кбит/сек
Каналы : 2 канала
Расположение каналов : Front: L R
Частота : 48,0 КГц
Битовая глубина : 16 бит
Размер потока : 235 Мбайт (2%)
Заголовок : 2 ch, 256 kb/s - ЛМ(Альянс вольных переводчиков)
Язык : Russian
Default : Да
Forced : Нет

Информация о торренте
Торрент:  Зарегистрирован [30 окт 2016, 10:25] Для скачивания необходимо Зарегистрироваться!



Если Вы уже зарегистрированы, то авторизуйтесь на трекере!
Статус:  
Размер:  9.64 ГБ (10 345 781 207 байт)
Приватный:  Нет (DHT включён)
Хэш:  1b7b9eb4a64dca4323cb
4ce95deaaa38ffe0a670
Здоровье:  100%
.torrent скачан:  2
Как тут качать  Правила, основные инструкции, FAQ-и



_________________


 Профиль  
 
Показать сообщения за:  Поле сортировки  
Начать новую тему Ответить на тему  [ 1 сообщение ] 


Кто сейчас на трекере

Сейчас этот форум просматривают: MSNbot Media и гости: 1


Вы не можете начинать темы
Вы не можете отвечать на сообщения
Вы не можете редактировать свои сообщения
Вы не можете удалять свои сообщения
Вы не можете добавлять вложения

Найти:


Правообладателям

!ВНИМАНИЕ!
Ресурс не предоставляет электронные версии произведений, а занимается лишь коллекционированием и каталогизацией ссылок, присылаемых и публикуемых на форуме нашими читателями. Если вы являетесь правообладателем какого-либо представленного материала и не желаете чтобы ссылка на него находилась в нашем каталоге, свяжитесь с нами и мы незамедлительно удалим её. Файлы для обмена на трекере предоставлены пользователями сайта, и администрация не несёт ответственности за их содержание. Просьба не заливать файлы, защищенные авторскими правами, а также файлы нелегального содержания!
cron
Вверх страницы
Вниз страницы
ppkBB3cker v.2 © 2008-2011 @ PPK