3d-tracker.ru • Просмотр темы - Путешествие на Запад: Демоны в 3Д / Journey to the West: Demon Chapter 3D (2017) [BDRip, 1080p, Half OverUnder / Вертикальная анаморфная стереопара без черных полос]

Регистрация Имя: Пароль: Запомнить Забыли пароль?



Правила форума





Начать новую тему Ответить на тему  [ Сообщений: 2 ] 
Статистика раздачи
Размер: 6.84 ГБ | Зарегистрирован: 23 май 2017, 10:32 | .torrent скачан: 18
Сиды: 1 [0 байт/сек]    Личи: 3 [0 байт/сек]
Автор Сообщение
 СообщениеДобавлено: 23 май 2017, 10:32 
Не в сети
Супермодератор
Аватара пользователя
Зарегистрирован: 15 апр 2014, 21:21
Торренты: 519
Раздал: 36.08 ТБ 
Скачал: 1.83 ТБ 
Ратио: 30.780
Спасибо: 3020 / 212
Сообщения: 685
Комментарии: 311
Откуда: РОССИЯ, ЦФО


Название: Путешествие на Запад: Демоны
Оригинальное название: Journey to the West: Demon Chapter / Xi you fu yao pian
Страна: Китай
Производство: Alibaba Pictures Group, China Film Group Corporation, Star Overseas
Год выпуска: 2017
Жанр: фэнтези, комедия, приключения
Продолжительность: 01:41:07

Режиссер: Цуй Харк
Авторы сценария: Стивен Чоу, Ли Сычжэнь
В ролях: Крис У, Кенни Линь, Яо Чэнь, Джелли Линь, Ян Ивэй, Менге Батыр, Ван Ликунь, Бао Бэйэр, Тони Ван, Да Пэн
О фильме: Монах Тан Сен отправляется вместе с трёмя своими учениками на Запад. Внешне кажется, что члены их команды вполне гармонично сосуществуют, однако на самом деле внутри каждого из них роятся свои мысли и переживания. Удастся ли им пройти через многие испытания, наладить взаимопонимание, разобраться со своими внутренними конфликтами и стать слаженной командой изгоняющей демонов..?

Перевод: Любительский (многоголосый, закадровый)
Субтитры: нет

Качество: BDRip (1080р) by SOLdAt
Формат: МКV
Видео кодек: AVC
Аудио кодек: АС3
Видео: 1920x1080 (1.77:1), 23.976 fps, MPEG-4 AVC ~9300 kbps avg
Аудио: 48.0 kHz, AC3, 2/0 (L,R) ch, 192 kbps
Размер: 6,84 Гб

Формат 3D: Half OverUnder / Вертикальная анаморфная стереопара (16:9)
Порядок ракурсов: верхний ракурс - первый
Полное имя : E:\AV\Journey.to.the.West.The.Demons.Strike.Back.2017.3D.1080p.Z-HOU.mkv
Формат : Matroska
Версия формата : Version 4 / Version 2
Размер файла : 6,84 Гбайт Название фильма : 3D.video.from_SOLdAt
Дата кодирования : UTC 2017-05-23 05:02:20
Программа кодирования : mkvmerge v7.1.0 ('Good Love') 64bit
Библиотека кодирования : libebml v1.3.0 + libmatroska v1.4.1
DURATION : 01:41:06.603000000

Видео
Идентификатор : 1
Формат : AVC
Формат/Информация : Advanced Video Codec
Профиль формата : High@L4.0
Параметр CABAC формата : Да
Параметр ReFrames формата : 2 кадра
Идентификатор кодека : V_MPEG4/ISO/AVC
Битрейт : 9299 Кбит/сек
Ширина : 1920 пикселей
Высота : 1080 пикселей
Соотношение сторон : 16:9
Режим частоты кадров : Постоянный
Частота кадров : 23,976 кадра/сек
Цветовое пространство : YUV
Субдискретизация насыщенности : 4:2:0
Битовая глубина : 8 бит
Тип развёртки : Прогрессивная
Бит/(Пиксели*Кадры) : 0.187
Размер потока : 6,57 Гбайт (96%)
Заголовок : 1080p, HalfOU(Zoom)
Язык : English
Default : Да
Forced : Нет

Аудио
Идентификатор : 2
Формат : AC-3
Формат/Информация : Audio Coding 3
Расширение режима : CM (complete main)
Параметр Endianness формата : Big
Идентификатор кодека : A_AC3
Вид битрейта : Постоянный
Битрейт : 192 Кбит/сек
Каналы : 2 канала
Расположение каналов : Front: L R
Частота : 48,0 КГц
Битовая глубина : 16 бит
Размер потока : 139 Мбайт (2%)
Заголовок : 2 ch, 192 kbit/s - любительский многоголосый
Язык : Russian
Default : Да
Forced : Нет

Информация о торренте
Торрент:  Зарегистрирован [23 май 2017, 10:32] Для скачивания необходимо Зарегистрироваться!



Если Вы уже зарегистрированы, то авторизуйтесь на трекере!
Статус:  
Размер:  6.84 ГБ (7 343 368 702 байт)
Приватный:  Нет (DHT включён)
Хэш:  d137bc2789cb31f7239e
040bc9031e7108d23567
Здоровье:  33%
.torrent скачан:  18
Как тут качать  Правила, основные инструкции, FAQ-и



_________________


 Профиль  
 
 СообщениеДобавлено: 14 июн 2017, 08:59 
Не в сети
Бывалый
Зарегистрирован: 15 май 2014, 15:05
Торренты: 38
Раздал: 2.97 ТБ 
Скачал: 1.26 ТБ 
Ратио: 2.355
Спасибо: 219 / 737
Сообщения: 138
Комментарии: 135
:co_ol:
Cпасибо!


 Профиль  
 
Показать сообщения за:  Поле сортировки  
Начать новую тему Ответить на тему  [ Сообщений: 2 ] 


Кто сейчас на трекере

Сейчас этот форум просматривают: нет зарегистрированных пользователей и гости: 2


Вы не можете начинать темы
Вы не можете отвечать на сообщения
Вы не можете редактировать свои сообщения
Вы не можете удалять свои сообщения
Вы не можете добавлять вложения

Найти:


Правообладателям

!ВНИМАНИЕ!
Ресурс не предоставляет электронные версии произведений, а занимается лишь коллекционированием и каталогизацией ссылок, присылаемых и публикуемых на форуме нашими читателями. Если вы являетесь правообладателем какого-либо представленного материала и не желаете чтобы ссылка на него находилась в нашем каталоге, свяжитесь с нами и мы незамедлительно удалим её. Файлы для обмена на трекере предоставлены пользователями сайта, и администрация не несёт ответственности за их содержание. Просьба не заливать файлы, защищенные авторскими правами, а также файлы нелегального содержания!
cron
Вверх страницы
Вниз страницы
ppkBB3cker v.2 © 2008-2011 @ PPK