3d-tracker.ru • Просмотр темы - Голодные игры: Сойка-пересмешница. Часть I в 3Д / The Hunger Games: Mockingjay-part 1 3D (2014) [BDRip, 1080p, Zoom Half OverUnder / Вертикальная анаморфная стереопара на весь экран]

Регистрация Имя: Пароль: Запомнить Забыли пароль?



Правила форума





Начать новую тему Ответить на тему  [ Сообщений: 2 ] 
Статистика раздачи
Размер: 6.89 ГБ | Зарегистрирован: 30 июл 2017, 10:50 | .torrent скачан: 1
Сиды: 0 [0 байт/сек]    Личи: 3 [0 байт/сек]
Автор Сообщение
 СообщениеДобавлено: 30 июл 2017, 10:50 
Не в сети
Супермодератор
Аватара пользователя
Зарегистрирован: 15 апр 2014, 21:21
Торренты: 519
Раздал: 35.89 ТБ 
Скачал: 1.83 ТБ 
Ратио: 30.676
Спасибо: 3009 / 212
Сообщения: 685
Комментарии: 311
Откуда: РОССИЯ, ЦФО


Название: Голодные игры: Сойка-пересмешница. Часть I
Оригинальное название: The Hunger Games: Mockingjay - Part 1
Год выпуска: 2014
Жанр: Фантастика, приключения
Выпущено: США, Color Force, Lionsgate

Режиссер: Френсис Лоуренс
В ролях: Дженнифер Лоуренс, Лиам Хемсворт, Джош Хатчерсон, Джулианна Мур, Филип Сеймур Хоффман, Дональд Сазерленд, Вуди Харрельсон, Элизабет Бэнкс, Натали Дормер, Сэм Клафлин, Уиллоу Шилдс, Махершала Али, Джена Мэлоун, Джеффри Райт, Паула Малкомсон, Стэнли Туччи, Ивэн Росс, Элден Хенсон, Уэс Чэтэм, Сарита Чоудри
О фильме: 75-ые Голодные игры изменили все. Китнисс нарушила правила, и непоколебимое до той поры деспотичное правление Капитолия пошатнулось. У людей появилась надежда, и ее символ - Сойка-пересмешница. Теперь, чтобы освободить захваченного в плен Пита и защитить своих близких, Китнисс придется сражаться в настоящих битвах и стать еще сильнее, чем на арене игр.

Качество: BDRip (1080р)
Видео: AVC, 23,976 fps, ~8300 Kbps, 1920x1080
Аудио: Русский / AC3 / 48 KHz / 5.1 ch / 448 Kbps (Дубляж - BD Rus)
Продолжительность: 01:50:19
Размер: 6,89 Гб

Формат 3D: Zoom Half OverUnder / Вертикальная анаморфная стереопара на весь экран
Порядок ракурсов: левый ракурс-первый
-Обрезаны вступительные и заключительные титры
-исходник купирован до формата 16:9
-убраны английская и украинская аудиодороги
-убраны все виды сабов

Полное имя : E:\AV\the.hunger.games.Mockingjay.p.I.2014.3D.1080p.ZHOU_by.SOLdAt.mkv
Формат : Matroska
Версия формата : Version 4 / Version 2
Размер файла : 6,89 Гбайт
Название фильма : The_Hunger_Games.Mockingjay_p.I_2014.3D.Zoom.Half.OU_by.SOLdAt
Дата кодирования : UTC 2017-07-30 04:32:02
Программа кодирования : mkvmerge v7.1.0 ('Good Love') 64bit
Библиотека кодирования : libebml v1.3.0 + libmatroska v1.4.1
DURATION : 01:50:18.899000000

Видео
Идентификатор : 1
Формат : AVC
Формат/Информация : Advanced Video Codec
Профиль формата : Baseline@L4.0
Параметр CABAC формата : Да
Параметр ReFrames формата : 2 кадра
Идентификатор кодека : V_MPEG4/ISO/AVC
Битрейт : 8316 Кбит/сек
Ширина : 1920 пикселей
Высота : 1080 пикселей
Соотношение сторон : 16:9
Режим частоты кадров : Постоянный
Частота кадров : 23,976 кадра/сек
Цветовое пространство : YUV
Субдискретизация насыщенности : 4:2:0
Битовая глубина : 8 бит
Тип развёртки : Прогрессивная
Бит/(Пиксели*Кадры) : 0.167
Размер потока : 6,41 Гбайт (93%)
Заголовок : 1080p, Zoom.HOU (16:9)
Язык : English
Default : Да
Forced : Нет

Аудио
Идентификатор : 2
Формат : AC-3
Формат/Информация : Audio Coding 3
Расширение режима : CM (complete main)
Параметр Endianness формата : Big
Идентификатор кодека : A_AC3
Вид битрейта : Постоянный
Битрейт : 448 Кбит/сек
Каналы : 6 каналов
Расположение каналов : Front: L C R, Side: L R, LFE
Частота : 48,0 КГц
Битовая глубина : 16 бит
Размер потока : 353 Мбайт (5%)
Заголовок : 6 ch, 448 kbit/s - Лицензия
Язык : Russian
Default : Да
Forced : Нет

Информация о торренте
Торрент:  Зарегистрирован [30 июл 2017, 10:50] Для скачивания необходимо Зарегистрироваться!



Если Вы уже зарегистрированы, то авторизуйтесь на трекере!
Статус:  
Размер:  6.89 ГБ (7 398 080 361 байт)
Приватный:  Нет (DHT включён)
Хэш:  cafbfcb73f180f2c4a09
fecca055361ec53654c8
Здоровье:  ???%
.torrent скачан:  1
Как тут качать  Правила, основные инструкции, FAQ-и



_________________


 Профиль  
 
 СообщениеДобавлено: 23 авг 2017, 14:21 
Не в сети
Бывалый
Зарегистрирован: 15 май 2014, 15:05
Торренты: 38
Раздал: 2.97 ТБ 
Скачал: 1.26 ТБ 
Ратио: 2.355
Спасибо: 219 / 737
Сообщения: 138
Комментарии: 135
Только здесь нашла ЗУМ(16:9) :ya_hoo_oo:


 Профиль  
 
Показать сообщения за:  Поле сортировки  
Начать новую тему Ответить на тему  [ Сообщений: 2 ] 


Кто сейчас на трекере

Сейчас этот форум просматривают: нет зарегистрированных пользователей и гости: 3


Вы не можете начинать темы
Вы не можете отвечать на сообщения
Вы не можете редактировать свои сообщения
Вы не можете удалять свои сообщения
Вы не можете добавлять вложения

Найти:


Правообладателям

!ВНИМАНИЕ!
Ресурс не предоставляет электронные версии произведений, а занимается лишь коллекционированием и каталогизацией ссылок, присылаемых и публикуемых на форуме нашими читателями. Если вы являетесь правообладателем какого-либо представленного материала и не желаете чтобы ссылка на него находилась в нашем каталоге, свяжитесь с нами и мы незамедлительно удалим её. Файлы для обмена на трекере предоставлены пользователями сайта, и администрация не несёт ответственности за их содержание. Просьба не заливать файлы, защищенные авторскими правами, а также файлы нелегального содержания!
cron
Вверх страницы
Вниз страницы
ppkBB3cker v.2 © 2008-2011 @ PPK