3d-tracker.ru • Просмотр темы - Чудо-женщина в 3Д / Wonder Woman 3D (2017) [BDRip by SOLdAt, 1080p, Zoom Half OverUnder / Вертикальная анаморфная стереопара на весь экран]

Регистрация Имя: Пароль: Запомнить Забыли пароль?



Правила форума





Начать новую тему Ответить на тему  [ 1 сообщение ] 
Статистика раздачи
Размер: 12.45 ГБ | Зарегистрирован: 15 сен 2017, 20:24 | .torrent скачан: 45
Сиды: 16 [0 байт/сек]    Личи: 4 [0 байт/сек]
Автор Сообщение
 СообщениеДобавлено: 15 сен 2017, 20:24 
Не в сети
Супермодератор
Аватара пользователя
Зарегистрирован: 15 апр 2014, 21:21
Торренты: 519
Раздал: 35.89 ТБ 
Скачал: 1.83 ТБ 
Ратио: 30.676
Спасибо: 3009 / 212
Сообщения: 685
Комментарии: 311
Откуда: РОССИЯ, ЦФО

Название: Чудо-женщина
Оригинальное название: Wonder Woman
Год выпуска: 2017
Жанр: Фэнтези, фантастика, боевик, приключения
Выпущено: США, Atlas Entertainment, Cruel & Unusual Films, DC Entertainment, Dune Entertainment, Tencent Pictures, WanDa Pictures, Warner Bros. Pictures

Режиссер: Патти Дженкинс
В ролях: Галь Гадот, Робин Райт, Дэвид Тьюлис, Конни Нильсен, Крис Пайн, Елена Анайя, Люси Дэвис, Юэн Бремнер, Даутцен Крёз, Дэнни Хьюстон
О фильме: Одна девочка жила на прекрасном сказочном острове в обществе сильных, независимых женщин. Она всегда слушалась маму, вовремя делала уроки и никогда не шалила. А потом она выросла и превратилась в хорошенькую девушку, чтобы с первой встречной особью противоположного пола отправиться в романтическое путешествие на поля Первой мировой войны. Там ей предстоит не только повернуть вспять нравственную деградацию немецкого народа, но и раскрыть тайну своего прошлого, остановить гнет темных сил, а также познать радость других увеселений.

Качество: BDRip (1080р_by SOLdAt)
Видео: AVC / 1920х1080 / 23,976 fps / 13.0 Mbps
Аудио: Русский / AC3 / 48 KHz / 5.1 ch / 448 Kbps (Дубляж - iTunes)
Размер: 12,4 Gb
Продолжительность: 02:12:13

Субтитры (UTF):
#1 - Русские Форсированные (включены по умолчанию)
#2 - Русские Полные

Формат 3D: Zoom Half OverUnder / Вертикальная анаморфная стереопара (16:9)
Порядок ракурсов: левый ракурс - первый.
Полное имя : E:\AV\Wonder.Woman.2017.3D.BlurayRip_bySOLdAt.1080p.ZHOU.mkv
Формат : Matroska
Версия формата : Version 4 / Version 2
Размер файла : 12,5 Гбайт
Название фильма : Wonder.Woman.2017.3D.BlurayRip_bySOLdAt
Дата кодирования : UTC 2017-09-15 13:45:03
Программа кодирования : mkvmerge v8.3.0 ('Over the Horizon') 64bit
Библиотека кодирования : libebml v1.3.1 + libmatroska v1.4.2
DURATION : 02:12:12.808000000

Видео
Идентификатор : 1
Формат : AVC
Формат/Информация : Advanced Video Codec
Профиль формата : High@L4.1
Параметр CABAC формата : Да
Параметр ReFrames формата : 4 кадра
Идентификатор кодека : V_MPEG4/ISO/AVC
Битрейт : 12,7 Мбит/сек
Ширина : 1920 пикселей
Высота : 1080 пикселей
Соотношение сторон : 16:9
Режим частоты кадров : Постоянный
Частота кадров : 23,976 кадра/сек
Цветовое пространство : YUV
Субдискретизация насыщенности : 4:2:0
Битовая глубина : 8 бит
Тип развёртки : Прогрессивная
Бит/(Пиксели*Кадры) : 0.256
Размер потока : 11,8 Гбайт (95%)
Заголовок : 1080p, ZoomHalfOU
Язык : English
Default : Да
Forced : Нет

Аудио
Идентификатор : 2
Формат : AC-3
Формат/Информация : Audio Coding 3
Расширение режима : CM (complete main)
Параметр Endianness формата : Big
Идентификатор кодека : A_AC3
Вид битрейта : Постоянный
Битрейт : 448 Кбит/сек
Каналы : 6 каналов
Расположение каналов : Front: L C R, Side: L R, LFE
Частота : 48,0 КГц
Битовая глубина : 16 бит
Размер потока : 425 Мбайт (3%)
Заголовок : 6ch, 448 kbit/s - itunes
Язык : Russian
Default : Да
Forced : Нет

Текст #1
Идентификатор : 3
Формат : UTF-8
Идентификатор кодека : S_TEXT/UTF8
Идентификатор кодека/Информация : UTF-8 Plain Text
Язык : Russian
Default : Да
Forced : Нет

Текст #2
Идентификатор : 4
Формат : UTF-8
Идентификатор кодека : S_TEXT/UTF8
Идентификатор кодека/Информация : UTF-8 Plain Text
Язык : Russian
Default : Нет
Forced : Нет

Информация о торренте
Торрент:  Зарегистрирован [15 сен 2017, 20:24] Для скачивания необходимо Зарегистрироваться!



Если Вы уже зарегистрированы, то авторизуйтесь на трекере!
Статус:  
Размер:  12.45 ГБ (13 370 875 894 байт)
Приватный:  Нет (DHT включён)
Хэш:  dd29bbe6e840b9008071
e4c829775662c04e1220
Здоровье:  100%
.torrent скачан:  45
Как тут качать  Правила, основные инструкции, FAQ-и



_________________


 Профиль  
 
Показать сообщения за:  Поле сортировки  
Начать новую тему Ответить на тему  [ 1 сообщение ] 


Кто сейчас на трекере

Сейчас этот форум просматривают: нет зарегистрированных пользователей и гости: 4


Вы не можете начинать темы
Вы не можете отвечать на сообщения
Вы не можете редактировать свои сообщения
Вы не можете удалять свои сообщения
Вы не можете добавлять вложения

Найти:


Правообладателям

!ВНИМАНИЕ!
Ресурс не предоставляет электронные версии произведений, а занимается лишь коллекционированием и каталогизацией ссылок, присылаемых и публикуемых на форуме нашими читателями. Если вы являетесь правообладателем какого-либо представленного материала и не желаете чтобы ссылка на него находилась в нашем каталоге, свяжитесь с нами и мы незамедлительно удалим её. Файлы для обмена на трекере предоставлены пользователями сайта, и администрация не несёт ответственности за их содержание. Просьба не заливать файлы, защищенные авторскими правами, а также файлы нелегального содержания!
cron
Вверх страницы
Вниз страницы
ppkBB3cker v.2 © 2008-2011 @ PPK