3d-tracker.ru • Просмотр темы - Терминатор 2: Судный день ( Театральная версия) в 3Д / Terminator 2: Judgment Day (Theatrical Cut) 3D (1991) [BDRip by SOLdAt, 1080p, Zoom Half OverUnder / Вертикальная анаморфная пара на весь экран | ремастеринг 2017]

Регистрация Имя: Пароль: Запомнить Забыли пароль?



Правила форума





Начать новую тему Ответить на тему  [ Сообщений: 3 ] 
Статистика раздачи
Размер: 7.4 ГБ | Зарегистрирован: 26 ноя 2017, 12:07 | .torrent скачан: 31
Сиды: 12 [0 байт/сек]    Личи: 0 [0 байт/сек]
Автор Сообщение
 СообщениеДобавлено: 26 ноя 2017, 12:07 
Не в сети
Супермодератор
Аватара пользователя
Зарегистрирован: 15 апр 2014, 21:21
Торренты: 519
Раздал: 35.68 ТБ 
Скачал: 1.83 ТБ 
Ратио: 30.562
Спасибо: 3002 / 212
Сообщения: 685
Комментарии: 311
Откуда: РОССИЯ, ЦФО


«То же производство. Та же модель. Миссия - другая.»


Год выпуска: 1991 (ремастеринг в 3D - 2017г.)
Страна: США, Франция (Carolco Pictures Inc., Pacific Western, Lightstorm Entertainment. РЕМАСТЕРИНГ 2017г: Studiocanal, DMG Entertainment)
Жанр: Фантастика, Боевик, Триллер

Режиссер: Джеймс Кэмерон / James Cameron
Роли исполняли:
The Terminator - Арнольд Шварценеггер
Sarah Connor - Линда Хэмилтон
John Connor - Эдвард Ферлонг
T-1000 - Роберт Патрик
Dr. Silberman - Эрл Боэн
Miles Dyson - Джо Мортон
Tarissa Dyson - С. Ипейта Меркерсон
Enrique Salceda - Кастуло Герра
Tim - Дэнни Кукси
Janelle Voight - Дженетт Голдстин
Todd Voight - Ксандер Беркли
Описание: Прошло более десяти лет с тех пор, как киборг-терминатор из 2029 года пытался уничтожить Сару Коннор — женщину, чей будущий сын выиграет войну человечества против машин. Теперь у Сары родился сын Джон и время, когда он поведёт за собой выживших людей на борьбу с машинами, неумолимо приближается. Именно в этот момент из постапокалиптического будущего прибывает новый терминатор — практически неуязвимый и способный принимать любое обличье. Цель нового терминатора уже не Сара, а уничтожение молодого Джона Коннора. Однако шансы Джона на спасение существенно повышаются, когда на помощь приходит перепрограммированный сопротивлением терминатор предыдущего поколения. Оба киборга вступают в смертельный бой, от исхода которого зависит судьба человечества.

Продолжительность: 02:13:00
Перевод: Профессиональный многоголосый закадровый (Twister)

Качество: BDRip (1080p by SOLdAt)
Видео: AVC / 1920х1080 / 23,976 fps / ~7400 kb/s
Аудио: Русский / AC3 / 48 KHz / 5.1 ch / 448 Kbps (MVO - Twister)
Субтитры: нет
Размер: 7,40 Гб

Формат 3D: Zoom Half OverUnder / Вертикальная анаморфная стереопара (16:9)
Порядок ракурсов: левый ракурс - первый
Обрезаны заключительные титры!

Полное имя : E:\AV\Terminator2(1991-2017)3D.1080p.Z-HOU.by_SOLdAt.mkv
Формат : Matroska
Версия формата : Version 4 / Version 2
Размер файла : 7,40 Гбайт
Название фильма : Terminator2(1991-2017)3D from SOLdAt
Дата кодирования : UTC 2017-11-26 05:59:17
Программа кодирования : mkvmerge v8.3.0 ('Over the Horizon') 64bit
Библиотека кодирования : libebml v1.3.1 + libmatroska v1.4.2
DURATION : 02:13:00.389000000

Видео
Идентификатор : 1
Формат : AVC
Формат/Информация : Advanced Video Codec
Профиль формата : High@L4.0
Параметр CABAC формата : Да
Параметр ReFrames формата : 2 кадра
Параметр GOP формата : M=3, N=24
Идентификатор кодека : V_MPEG4/ISO/AVC
Битрейт : 7355 Кбит/сек
Ширина : 1920 пикселей
Высота : 1080 пикселей
Соотношение сторон : 16:9
Режим частоты кадров : Постоянный
Частота кадров : 23,976 кадра/сек
Цветовое пространство : YUV
Субдискретизация насыщенности : 4:2:0
Битовая глубина : 8 бит
Тип развёртки : Прогрессивная
Бит/(Пиксели*Кадры) : 0.148
Размер потока : 6,83 Гбайт (92%)
Заголовок : Zoom Half OverUnder, 1080p
Язык : English
Default : Да
Forced : Нет

Аудио
Идентификатор : 2
Формат : AC-3
Формат/Информация : Audio Coding 3
Расширение режима : CM (complete main)
Параметр Endianness формата : Big
Идентификатор кодека : A_AC3
Вид битрейта : Постоянный
Битрейт : 448 Кбит/сек
Каналы : 6 каналов
Расположение каналов : Front: L C R, Side: L R, LFE
Частота : 48,0 КГц
Битовая глубина : 16 бит
Размер потока : 426 Мбайт (6%)
Заголовок : 5.1 ch, 448 kbs
Язык : Russian
Default : Да
Forced : Нет

Информация о торренте
Торрент:  Зарегистрирован [26 ноя 2017, 12:07] Для скачивания необходимо Зарегистрироваться!



Если Вы уже зарегистрированы, то авторизуйтесь на трекере!
Статус:  
Размер:  7.4 ГБ (7 942 189 018 байт)
Приватный:  Нет (DHT включён)
Хэш:  009228e3c34ebf1b331d
e13db3f925699fa90049
Здоровье:  100%
.torrent скачан:  31
Как тут качать  Правила, основные инструкции, FAQ-и



_________________


 Профиль  
 
 СообщениеДобавлено: 26 ноя 2017, 14:59 
Не в сети
заглянувший
Зарегистрирован: 01 мар 2017, 08:34
Торренты: 0
Раздал: 960.51 ГБ 
Скачал: 74.82 ГБ 
Ратио: 12.838
Спасибо: 0 / 22
Сообщения: 5
Комментарии: 5
Soldat благодарю за ремастеринг. Терминатор - 2 в 3D ещё не видел!!!


 Профиль  
 
 СообщениеДобавлено: 26 ноя 2017, 16:08 
Не в сети
Супермодератор
Аватара пользователя
Зарегистрирован: 15 апр 2014, 21:21
Торренты: 519
Раздал: 35.68 ТБ 
Скачал: 1.83 ТБ 
Ратио: 30.562
Спасибо: 3002 / 212
Сообщения: 685
Комментарии: 311
Откуда: РОССИЯ, ЦФО
dendavidov писал(а):
Soldat благодарю за ремастеринг. Терминатор - 2 в 3D ещё не видел!!!

Студийный конверт!Выпущен к юбилею Шварца!
В августе была мировая премьера-а 3Д блюр только вышел!

_________________


 Профиль  
 
Показать сообщения за:  Поле сортировки  
Начать новую тему Ответить на тему  [ Сообщений: 3 ] 


Кто сейчас на трекере

Сейчас этот форум просматривают: Google [Bot] и гости: 1


Вы не можете начинать темы
Вы не можете отвечать на сообщения
Вы не можете редактировать свои сообщения
Вы не можете удалять свои сообщения
Вы не можете добавлять вложения

Найти:


Правообладателям

!ВНИМАНИЕ!
Ресурс не предоставляет электронные версии произведений, а занимается лишь коллекционированием и каталогизацией ссылок, присылаемых и публикуемых на форуме нашими читателями. Если вы являетесь правообладателем какого-либо представленного материала и не желаете чтобы ссылка на него находилась в нашем каталоге, свяжитесь с нами и мы незамедлительно удалим её. Файлы для обмена на трекере предоставлены пользователями сайта, и администрация не несёт ответственности за их содержание. Просьба не заливать файлы, защищенные авторскими правами, а также файлы нелегального содержания!
cron
Вверх страницы
Вниз страницы
ppkBB3cker v.2 © 2008-2011 @ PPK