3d-tracker.ru • Просмотр темы - Металлический шторм: Крах Джаред-Сина в 3Д / Metalstorm: The Destruction of Jared-Syn 3D (1983) [BDRip, Half Side-by-Side / Горизонтальная анаморфная стереопара]

Регистрация Имя: Пароль: Запомнить Забыли пароль?



Правила форума





Начать новую тему Ответить на тему  [ 1 сообщение ] 
Статистика раздачи
Размер: 3.22 ГБ | Зарегистрирован: 17 дек 2017, 10:46 | .torrent скачан: 2
Сиды: 2 [0 байт/сек]    Личи: 0 [0 байт/сек]
Автор Сообщение
 СообщениеДобавлено: 17 дек 2017, 10:46 
Не в сети
Супермодератор
Аватара пользователя
Зарегистрирован: 15 апр 2014, 21:21
Торренты: 519
Раздал: 36.08 ТБ 
Скачал: 1.83 ТБ 
Ратио: 30.780
Спасибо: 3020 / 212
Сообщения: 685
Комментарии: 311
Откуда: РОССИЯ, ЦФО

Название: Металлический шторм: Крах Джаред-Сина
Оригинальное название: Metalstorm: The Destruction of Jared-Syn
Год выпуска: 1983
Страна: США (Universal Pictures, Albert Band International Productions Inc.)
Жанр: Фантастика, Боевик, Мелодрама, Приключения
Продолжительность: 01:17:55
Перевод: Любительский одноголосый закадровый (Noname)

Режиссер: Чарльз Бэнд / Charles Band
В ролях: Джеффри Байрон (Dogen), Майкл Престон (Jared-Syn), Тим Томерсон (Rhodes), Келли Престон (Dhyana), Ричард Молл (Hurok), Р. Дэвид Смит (Baal), Ларри Пеннелл (Alx), Марти Загон (Zax), Мики Фокс (Poker Annie), Уильям Джонс (Baal's Lieutenant), Уинстон Джонс (Chimera)
Описание: На месте исчезнувшего города Сэт образовалась горная пустыня с пещерами. В одних живут кочевники, в других — добываются кристаллы чудодейственной силы. Путем обмана предводителем кочевников становится авантюрист из богатого рода Джаред-Син. Он завладел большим кристаллом — аккумулятором жизненной энергии и «заряжает» его, убивая людей или превращает их в рабов-мутантов. Став властелином пустыни, он уничтожает всех, кто появляется на его территории. Из Вашингтона на поиски и для уничтожения Джаред-Сина направляется рейнджер Доджен. Очаровательная Дайана и бывший сыщик Роудс помогают Доджену проникнуть туда, где раньше был город Сэт и победить Джаред-Сина.

Качество: BDRip (1080p)
Видео: AVC, 5420 кбит/сек, 23.976 fps, 1920x800
Аудио: Русский AC3, 6 ch, 384 Кбит/с (VO)
Размер: 3,22 Гб
Субтитры: Русские(полные)-отключаемые (перевод любительский)

Формат 3D: Half SideBySide / Горизонтальная анаморфная стереопара
Порядок ракурсов: Левый-первый
СПАСИБО за ИСХОДНИК Ash61
3D глубокое.

Полное имя : E:\AV\Metalstorm(1983)3D.hsbs(Unter59).mkv
Формат : Matroska
Версия формата : Version 4 / Version 2
Размер файла : 3,22 Гбайт
Название фильма : Металлический шторм: Крах Джаред-Сина / Metalstorm: The Destruction of Jared-Syn (1983) 3D from Unter59
Дата кодирования : UTC 2017-12-17 04:36:38
Программа кодирования : mkvmerge v7.1.0 ('Good Love') 64bit
Библиотека кодирования : libebml v1.3.0 + libmatroska v1.4.1
Attachements : Cover.png
DURATION : 01:16:17.593000000

Видео
Идентификатор : 1
Формат : AVC
Формат/Информация : Advanced Video Codec
Профиль формата : High@4.0
Параметр CABAC формата : Да
Параметр ReFrames формата : 5 кадров
Параметр GOP формата : M=1, N=12
Идентификатор кодека : V_MPEG4/ISO/AVC
Битрейт : 5417 Кбит/сек
Ширина : 1920 пикселей
Высота : 1080 пикселей
Соотношение сторон : 16:9
Режим частоты кадров : Постоянный
Частота кадров : 23,976 кадра/сек
Цветовое пространство : YUV
Субдискретизация насыщенности : 4:2:0
Битовая глубина : 8 бит
Тип развёртки : Прогрессивная
Бит/(Пиксели*Кадры) : 0.109
Размер потока : 2,95 Гбайт (92%)
Заголовок : 800p, hsbs
Язык : English
Default : Да
Forced : Нет

Аудио
Идентификатор : 2
Формат : AC-3
Формат/Информация : Audio Coding 3
Расширение режима : CM (complete main)
Параметр Endianness формата : Big
Идентификатор кодека : A_AC3
Вид битрейта : Постоянный
Битрейт : 384 Кбит/сек
Каналы : 6 каналов
Расположение каналов : Front: L C R, Side: L R, LFE
Частота : 48,0 КГц
Битовая глубина : 16 бит
Размер потока : 214 Мбайт (6%)
Заголовок : VO (Любительский одноголосый) 5.1 ch, 384 kbs
Язык : Russian
Default : Да
Forced : Нет

Текст
Идентификатор : 3
Формат : UTF-8
Идентификатор кодека : S_TEXT/UTF8
Идентификатор кодека/Информация : UTF-8 Plain Text
Заголовок : Русские - Полные (перевод любительский)
Язык : Russian
Default : Да
Forced : Нет

Информация о торренте
Торрент:  Зарегистрирован [17 дек 2017, 10:46] Для скачивания необходимо Зарегистрироваться!



Если Вы уже зарегистрированы, то авторизуйтесь на трекере!
Статус:  
Размер:  3.22 ГБ (3 458 697 531 байт)
Приватный:  Нет (DHT включён)
Хэш:  311ab28b693deaab1bec
3064489d6df8f4a56f1b
Здоровье:  100%
.torrent скачан:  2
Как тут качать  Правила, основные инструкции, FAQ-и



_________________


 Профиль  
 
Показать сообщения за:  Поле сортировки  
Начать новую тему Ответить на тему  [ 1 сообщение ] 


Кто сейчас на трекере

Сейчас этот форум просматривают: нет зарегистрированных пользователей и гости: 1


Вы не можете начинать темы
Вы не можете отвечать на сообщения
Вы не можете редактировать свои сообщения
Вы не можете удалять свои сообщения
Вы не можете добавлять вложения

Найти:


Правообладателям

!ВНИМАНИЕ!
Ресурс не предоставляет электронные версии произведений, а занимается лишь коллекционированием и каталогизацией ссылок, присылаемых и публикуемых на форуме нашими читателями. Если вы являетесь правообладателем какого-либо представленного материала и не желаете чтобы ссылка на него находилась в нашем каталоге, свяжитесь с нами и мы незамедлительно удалим её. Файлы для обмена на трекере предоставлены пользователями сайта, и администрация не несёт ответственности за их содержание. Просьба не заливать файлы, защищенные авторскими правами, а также файлы нелегального содержания!
cron
Вверх страницы
Вниз страницы
ppkBB3cker v.2 © 2008-2011 @ PPK