3d-tracker.ru • Просмотр темы - Вурдалаки / 3D (2017) [BDRip by SOLdAt, 1080p, Zoom Half OverUnder / Вертикальная анаморфная стереопара на весь экран]

Регистрация Имя: Пароль: Запомнить Забыли пароль?



Правила форума





Начать новую тему Ответить на тему  [ Сообщений: 7 ] 
Статистика раздачи
Размер: 1.58 ГБ | Зарегистрирован: 28 окт 2017, 17:33 | .torrent скачан: 16
Сиды: 1 [0 байт/сек]    Личи: 3 [0 байт/сек]
Автор Сообщение
 СообщениеДобавлено: 28 окт 2017, 17:33 
Не в сети
Супермодератор
Аватара пользователя
Зарегистрирован: 15 апр 2014, 21:21
Торренты: 519
Раздал: 35.88 ТБ 
Скачал: 1.83 ТБ 
Ратио: 30.674
Спасибо: 3008 / 212
Сообщения: 685
Комментарии: 311
Откуда: РОССИЯ, ЦФО

«Для любви смерти нет…»


Название: Вурдалаки
Год выхода: 2017
Жанр: Триллер, фэнтези

Режиссер: Сергей Гинзбург
В ролях: Михаил Пореченков, Константин Крюков, Аглая Шиловская, Андрей Руденский, Михаил Жигалов, Игорь Хрипунов, Анатолий Гущин, Константин Милованов, Анна Арланова, Юлия Ауг
О фильме: Россия, 18 век. На краю Руси, в Карпатских горах, стоит Спасский монастырь, куда был сослан духовник императрицы Елизаветы монах Лавр. Какие тайны он унес с собой из столичного Петербурга, никто не ведал. Да и край, в который он был сослан, издревле считался неспокойным, о нем слагали легенды и рассказывали их только шепотом. Говорили мол, что в тех краях живет нечистая сила, оставшаяся там еще со времен набегов турецких…
Спустя годы за Лавром из Петербурга прибывает Андрей, крестник самой императрицы Елизаветы. В Карпатах Андрей сталкивается со странным, пугающим и необычным, что не в состоянии объяснить его рациональный разум. А еще он встречает настоящую любовь, ради которой вступает в схватку со сверхъестественным злом.

Страна: Россия
Студия: Горад, ВВП Альянс
Продолжительность: 01:19:06
Язык: Русский

Качество: BDRip (1080p)
Видео: 1920x1080, 23,976 fps, AVC, 2500 kбит/с
Аудио : 48 kHz, AC3, 5.1 ch, 384 Kbps | RUS
Размер: 1,58 Гб

Формат 3D: Zoom Half OverUnder / Вертикальная анаморфная стереопара (16:9)
Порядок ракурсов: Левый-первый
Полное имя : E:\AV\Вурдалаки.2016.3D.Zoom.HOU.mkv
Формат : Matroska
Версия формата : Version 4 / Version 2
Размер файла : 1,58 Гбайт
Название фильма : от SOLdAt
Дата кодирования : UTC 2017-10-28 11:50:41
Программа кодирования : mkvmerge v7.1.0 ('Good Love') 64bit
Библиотека кодирования : libebml v1.3.0 + libmatroska v1.4.1
Attachements : Cover.png
DURATION : 01:19:05.474000000

Видео
Идентификатор : 1
Формат : AVC
Формат/Информация : Advanced Video Codec
Профиль формата : High@L4.0
Параметр CABAC формата : Да
Параметр ReFrames формата : 4 кадра
Идентификатор кодека : V_MPEG4/ISO/AVC
Битрейт : 2500 Кбит/сек
Ширина : 1920 пикселей
Высота : 1080 пикселей
Соотношение сторон : 16:9
Режим частоты кадров : Постоянный
Частота кадров : 23,976 кадра/сек
Цветовое пространство : YUV
Субдискретизация насыщенности : 4:2:0
Битовая глубина : 8 бит
Тип развёртки : Прогрессивная
Бит/(Пиксели*Кадры) : 0.050
Размер потока : 1,34 Гбайт (85%)
Язык : English
Default : Да
Forced : Нет

Аудио
Идентификатор : 2
Формат : AC-3
Формат/Информация : Audio Coding 3
Расширение режима : CM (complete main)
Параметр Endianness формата : Big
Идентификатор кодека : A_AC3
Вид битрейта : Постоянный
Битрейт : 384 Кбит/сек
Каналы : 6 каналов
Расположение каналов : Front: L C R, Side: L R, LFE
Частота : 48,0 КГц
Битовая глубина : 16 бит
Размер потока : 217 Мбайт (13%)
Заголовок : 6 ch, 384 kbit/s
Язык : Russian
Default : Да
Forced : Нет

Информация о торренте
Торрент:  Зарегистрирован [28 окт 2017, 17:33] Для скачивания необходимо Зарегистрироваться!



Если Вы уже зарегистрированы, то авторизуйтесь на трекере!
Статус:  
Размер:  1.58 ГБ (1 697 216 214 байт)
Приватный:  Нет (DHT включён)
Хэш:  6d1a3a6b9ffd29f8d4a1
78ba3f88e578bb6e40dd
Здоровье:  33%
.torrent скачан:  16
Как тут качать  Правила, основные инструкции, FAQ-и



_________________


 Профиль  
 
 СообщениеДобавлено: 29 окт 2017, 17:38 
Не в сети
заглянувший
Зарегистрирован: 27 мар 2014, 17:45
Торренты: 0
Раздал: 227.97 ГБ 
Скачал: 516.39 ГБ 
Ратио: 0.441
Спасибо: 0 / 1
Сообщения: 18
Комментарии: 28
Почему размер такой маленький для 3D?


 Профиль  
 
 СообщениеДобавлено: 29 окт 2017, 17:53 
Не в сети
Супермодератор
Аватара пользователя
Зарегистрирован: 15 апр 2014, 21:21
Торренты: 519
Раздал: 35.88 ТБ 
Скачал: 1.83 ТБ 
Ратио: 30.674
Спасибо: 3008 / 212
Сообщения: 685
Комментарии: 311
Откуда: РОССИЯ, ЦФО
Параметр ReFrames формата : 4 кадра
Битрейт : 2500 Кбит/сек

_________________


 Профиль  
 
 СообщениеДобавлено: 29 окт 2017, 18:36 
Не в сети
Бывалый
Зарегистрирован: 07 июн 2014, 08:13
Торренты: 70
Раздал: 2.18 ТБ 
Скачал: 1.07 ТБ 
Ратио: 2.034
Спасибо: 303 / 651
Сообщения: 178
Комментарии: 174
:co_ol: Спасибо!
Проверено на LG 47"


 Профиль  
 
 СообщениеДобавлено: 29 окт 2017, 21:34 
Не в сети
заглянувший
Зарегистрирован: 27 мар 2014, 17:45
Торренты: 0
Раздал: 227.97 ГБ 
Скачал: 516.39 ГБ 
Ратио: 0.441
Спасибо: 0 / 1
Сообщения: 18
Комментарии: 28
Elen-best писал(а):
:co_ol: Спасибо!
Проверено на LG 47"

Как 3D, стоящее, вылеты есть и как фильм вообще?


 Профиль  
 
 СообщениеДобавлено: 30 окт 2017, 00:13 
Не в сети
Супермодератор
Аватара пользователя
Зарегистрирован: 15 апр 2014, 21:21
Торренты: 519
Раздал: 35.88 ТБ 
Скачал: 1.83 ТБ 
Ратио: 30.674
Спасибо: 3008 / 212
Сообщения: 685
Комментарии: 311
Откуда: РОССИЯ, ЦФО
Немейкий блюр-качество 3Д-среднее!
Если на Тв-увеличить глубину(паралакс) - вполне прилично выходит!

_________________


 Профиль  
 
 СообщениеДобавлено: 05 фев 2018, 08:39 
Не в сети
заглянувший
Зарегистрирован: 05 фев 2018, 08:02
Торренты: 0
Раздал: 5 ГБ 
Скачал: 0 байт 
Ратио: None.
Спасибо: 0 / 0
Сообщения: 2
Комментарии: 2
Сегодня я думал, что встретился. И знания, которые могут мне помочь.


 Профиль  
 
Показать сообщения за:  Поле сортировки  
Начать новую тему Ответить на тему  [ Сообщений: 7 ] 


Кто сейчас на трекере

Сейчас этот форум просматривают: нет зарегистрированных пользователей и гости: 3


Вы не можете начинать темы
Вы не можете отвечать на сообщения
Вы не можете редактировать свои сообщения
Вы не можете удалять свои сообщения
Вы не можете добавлять вложения

Найти:


Правообладателям

!ВНИМАНИЕ!
Ресурс не предоставляет электронные версии произведений, а занимается лишь коллекционированием и каталогизацией ссылок, присылаемых и публикуемых на форуме нашими читателями. Если вы являетесь правообладателем какого-либо представленного материала и не желаете чтобы ссылка на него находилась в нашем каталоге, свяжитесь с нами и мы незамедлительно удалим её. Файлы для обмена на трекере предоставлены пользователями сайта, и администрация не несёт ответственности за их содержание. Просьба не заливать файлы, защищенные авторскими правами, а также файлы нелегального содержания!
cron
Вверх страницы
Вниз страницы
ppkBB3cker v.2 © 2008-2011 @ PPK