3d-tracker.ru • Просмотр темы - Су-30СМ - Управляемый штопор / 3D (2017) [1080p, HSBS]

Регистрация Имя: Пароль: Запомнить Забыли пароль?



Правила форума





Начать новую тему Ответить на тему  [ Сообщений: 2 ] 
Статистика раздачи
Размер: 175.03 МБ | Зарегистрирован: 23 мар 2017, 10:47 | .torrent скачан: 15
Сиды: 2 [0 байт/сек]    Личи: 0 [0 байт/сек]
Автор Сообщение
 СообщениеДобавлено: 23 мар 2017, 10:47 
Не в сети
Супермодератор
Аватара пользователя
Зарегистрирован: 15 апр 2014, 21:21
Торренты: 518
Раздал: 35.61 ТБ 
Скачал: 1.83 ТБ 
Ратио: 30.526
Спасибо: 2975 / 212
Сообщения: 684
Комментарии: 311
Откуда: РОССИЯ, ЦФО

Пилотажная группа «Русские витязи» 21/03/2017, завершила лётную программу на оружейной выставке в малайзийском Лангкави LIMA-2017, продемонстрировав высший одиночный пилотаж.
Летчики группы впервые выступали за рубежом на Су-30СМ.
«Мы показали одиночный пилотаж, используя сверхманевренность Су-30СМ. В частности, в небе над Лангкави был впервые показан управляемый штопор, а также проход на малой скорости, „колокол”, кобра Пугачева, полёты на встречных курсах, вращение на закритических углах атаки», рассказал ведущий группы — п-к Андрей Алексеев.

Просмотр в 2Д и 3Д
Полное имя : E:\AV\«Русские витязи»-управляемый штопор.mkv
Формат : Matroska
Версия формата : Version 4 / Version 2
Размер файла : 175 Мбайт
Продолжительность : 3 м. 3 с.
Программа кодирования : mkvmerge v8.3.0 ('Over the Horizon') 64bit
Библиотека кодирования : libebml v1.3.1 + libmatroska v1.4.2
DURATION : 00:03:03.007000000

Видео
Идентификатор : 1
Формат : AVC
Формат/Информация : Advanced Video Codec
Профиль формата : High@L4.0
Параметр CABAC формата : Да
Параметр ReFrames формата : 2 кадра
Параметр GOP формата : M=3, N=24
Идентификатор кодека : V_MPEG4/ISO/AVC
Продолжительность : 3 м. 3 с.
Битрейт : 7671 Кбит/сек
Ширина : 1920 пикселей
Высота : 1080 пикселей
Соотношение сторон : 16:9
Режим частоты кадров : Постоянный
Частота кадров : 24,000 кадра/сек
Цветовое пространство : YUV
Субдискретизация насыщенности : 4:2:0
Битовая глубина : 8 бит
Тип развёртки : Прогрессивная
Бит/(Пиксели*Кадры) : 0.154
Размер потока : 167 Мбайт (96%)
Язык : English
Default : Да
Forced : Нет

Аудио
Идентификатор : 2
Формат : AC-3
Формат/Информация : Audio Coding 3
Расширение режима : CM (complete main)
Параметр Endianness формата : Big
Идентификатор кодека : A_AC3
Продолжительность : 3 м. 3 с.
Вид битрейта : Постоянный
Битрейт : 192 Кбит/сек
Каналы : 2 канала
Расположение каналов : Front: L R
Частота : 48,0 КГц
Битовая глубина : 16 бит
Размер потока : 4,19 Мбайт (2%)
Язык : English
Default : Да
Forced : Нет
Информация о торренте
Торрент:  Зарегистрирован [23 мар 2017, 10:47] Для скачивания необходимо Зарегистрироваться!



Если Вы уже зарегистрированы, то авторизуйтесь на трекере!
Статус:  
Размер:  175.03 МБ (183 527 640 байт)
Приватный:  Нет (DHT включён)
Хэш:  4fbc0ec0f72993353e87
c9296e2b01651c1d9968
Здоровье:  100%
.torrent скачан:  15
Как тут качать  Правила, основные инструкции, FAQ-и



_________________


 Профиль  
 
 СообщениеДобавлено: 29 янв 2018, 12:11 
Не в сети
заглянувший
Зарегистрирован: 29 янв 2018, 07:35
Торренты: 0
Раздал: 5 ГБ 
Скачал: 0 байт 
Ратио: None.
Спасибо: 0 / 0
Сообщения: 2
Комментарии: 2
Большое спасибо за обмен. Я ищу его Это очень сложно найти.


 Профиль  
 
Показать сообщения за:  Поле сортировки  
Начать новую тему Ответить на тему  [ Сообщений: 2 ] 


Кто сейчас на трекере

Сейчас этот форум просматривают: нет зарегистрированных пользователей и гости: 1


Вы не можете начинать темы
Вы не можете отвечать на сообщения
Вы не можете редактировать свои сообщения
Вы не можете удалять свои сообщения
Вы не можете добавлять вложения

Найти:


Правообладателям

!ВНИМАНИЕ!
Ресурс не предоставляет электронные версии произведений, а занимается лишь коллекционированием и каталогизацией ссылок, присылаемых и публикуемых на форуме нашими читателями. Если вы являетесь правообладателем какого-либо представленного материала и не желаете чтобы ссылка на него находилась в нашем каталоге, свяжитесь с нами и мы незамедлительно удалим её. Файлы для обмена на трекере предоставлены пользователями сайта, и администрация не несёт ответственности за их содержание. Просьба не заливать файлы, защищенные авторскими правами, а также файлы нелегального содержания!
cron
Вверх страницы
Вниз страницы
ppkBB3cker v.2 © 2008-2011 @ PPK