3d-tracker.ru • Просмотр темы - Зимняя Самара / 3D (2014) [(1080p) Anamorph SideBySide / Горизонтальная анаморфная стереопара]

Регистрация Имя: Пароль: Запомнить Забыли пароль?



Правила форума





Начать новую тему Ответить на тему  [ Сообщений: 2 ] 
Статистика раздачи
Размер: 215.09 МБ | Зарегистрирован: 29 дек 2014, 20:35 | .torrent скачан: 6
Сиды: 3 [0 байт/сек]    Личи: 5 [0 байт/сек]
Автор Сообщение
 СообщениеДобавлено: 29 дек 2014, 20:36 
Не в сети
Опытный
Аватара пользователя
Зарегистрирован: 20 май 2013, 12:10
Торренты: 32
Раздал: 631.77 ГБ 
Скачал: 371.62 ГБ 
Ратио: 1.700
Спасибо: 129 / 1
Сообщения: 65
Комментарии: 52

Оригинальное название: Зимняя Самара 3Д
Страна: Россия
Продолжительность: 2м50с
Дата выхода: 2014
Жанр: Видео-фото зарисовка
Режиссёр: Я
В ролях: Улицы города Самара
О фильме: Мини фото-видео зарисовка "Зимняя Самара 3D"



MediaInfo: Общее
Уникальный идентификатор : 168348648403719580577546155723716462494 (0x7EA6C532C2870C1E037BA147C20E879E)
Полное имя : C:\Users\Игорь\Desktop\ZimnySamara 3D.mkv
Формат : Matroska
Версия формата : Version 2
Размер файла : 215 Мбайт
Продолжительность : 2 м. 50 с.
Общий поток : 10,6 Мбит/сек
Программа кодирования : Lavf51.12.1
Библиотека кодирования : Lavf51.12.1

Видео
Идентификатор : 1
Формат : AVC
Формат/Информация : Advanced Video Codec
Профиль формата : Baseline@L4.0
Параметр CABAC формата : Нет
Параметр ReFrames формата : 1 кадр
Параметр GOP формата : M=1, N=12
Идентификатор кодека : V_MPEG4/ISO/AVC
Продолжительность : 2 м. 50 с.
Битрейт : 10,3 Мбит/сек
Ширина : 1920 пикселей
Высота : 1080 пикселей
Соотношение сторон : 16:9
Режим частоты кадров : Постоянный
Частота кадров : 24,000 кадра/сек
Цветовое пространство : YUV
Субдискретизация насыщенности : 4:2:0
Битовая глубина : 8 бит
Тип развёртки : Прогрессивная
Бит/(Пиксели*Кадры) : 0.206
Размер потока : 208 Мбайт (97%)
Default : Да
Forced : Нет

Аудио
Идентификатор : 2
Формат : AC-3
Формат/Информация : Audio Coding 3
Расширение режима : CM (complete main)
Параметр Endianness формата : Big
Идентификатор кодека : A_AC3
Продолжительность : 2 м. 50 с.
Вид битрейта : Постоянный
Битрейт : 128 Кбит/сек
Каналы : 2 канала
Расположение каналов : Front: L R
Частота : 44,1 КГц
Битовая глубина : 16 бит
Метод сжатия : С потерями
Размер потока : 2,59 Мбайт (1%)
Default : Да
Forced : Нет
Информация о торренте
Торрент:  Зарегистрирован [29 дек 2014, 20:35] Для скачивания необходимо Зарегистрироваться!



Если Вы уже зарегистрированы, то авторизуйтесь на трекере!
Статус:   изменил Xamjiit (29 дек 2014, 20:55)
Размер:  215.09 МБ (225 537 253 байт)
Приватный:  Нет (DHT включён)
Хэш:  bf1b61893b30e0999590
db3bdd99f5c0a98cdde0
Здоровье:  60%
.torrent скачан:  6
Как тут качать  Правила, основные инструкции, FAQ-и




 Профиль  
 
 СообщениеДобавлено: 29 сен 2017, 05:30 
Не в сети
заглянувший
Зарегистрирован: 28 сен 2017, 16:40
Торренты: 0
Раздал: 5.99 ГБ 
Скачал: 33.76 ГБ 
Ратио: 0.177
Спасибо: 0 / 0
Сообщения: 1
Комментарии: 1
viewtopic.php?f=15&t=1831#


 Профиль  
 
Показать сообщения за:  Поле сортировки  
Начать новую тему Ответить на тему  [ Сообщений: 2 ] 


Кто сейчас на трекере

Сейчас этот форум просматривают: нет зарегистрированных пользователей и гости: 2


Вы не можете начинать темы
Вы не можете отвечать на сообщения
Вы не можете редактировать свои сообщения
Вы не можете удалять свои сообщения
Вы не можете добавлять вложения

Найти:
 cron

Правообладателям

!ВНИМАНИЕ!
Ресурс не предоставляет электронные версии произведений, а занимается лишь коллекционированием и каталогизацией ссылок, присылаемых и публикуемых на форуме нашими читателями. Если вы являетесь правообладателем какого-либо представленного материала и не желаете чтобы ссылка на него находилась в нашем каталоге, свяжитесь с нами и мы незамедлительно удалим её. Файлы для обмена на трекере предоставлены пользователями сайта, и администрация не несёт ответственности за их содержание. Просьба не заливать файлы, защищенные авторскими правами, а также файлы нелегального содержания!
cron
Вверх страницы
Вниз страницы
ppkBB3cker v.2 © 2008-2011 @ PPK