3d-tracker.ru • Просмотр темы - Покорение небес Дэвида Аттенборо 3Д / David Attenborough's Conquest of the Skies 3D (David Lee) [2014, Документальный, Видовой, BDrip-AVC] Eng, Half OverUnder / Вертикальная анаморфная стереопара

Регистрация Имя: Пароль: Запомнить Забыли пароль?



Правила форума





Начать новую тему Ответить на тему  [ 1 сообщение ] 
Статистика раздачи
Размер: 18.2 ГБ | Зарегистрирован: 04 май 2015, 21:29 | .torrent скачан: 17
Сиды: 2 [0 байт/сек]    Личи: 10 [0 байт/сек]
Автор Сообщение
 СообщениеДобавлено: 04 май 2015, 21:29 
Не в сети
VIP аплоадер
Аватара пользователя
Зарегистрирован: 13 мар 2012, 16:36
Торренты: 184
Раздал: 53.59 ТБ 
Скачал: 30.43 ТБ 
Ратио: 1.761
Спасибо: 1912 / 2
Сообщения: 167
Комментарии: 32
Откуда: Челны


Покорение небес Дэвида Аттенборо 3Д
David Attenborough's Conquest of the Skies 3D


Год выпуска: 2014
Страна: Великобритания (Colossus Productions, Sky TV)
Жанр: Документальный, Видовой
Общая продолжительность: 02:38:53

Перевод: Отсутствует

Режиссер: David Lee

Автор сценария и рассказчик: Дэвид Аттенборо / David Attenborough

Описание: Способность летать является одним из величайших достижений природы. Более ста миллиардов существ парят в небе сегодня, от крошечной, питающейся нектаром колибри до защищённых бронёй жуков, причудливых крылатых ящериц и летучих мышей, охотящихся тёмной ночью и ориентирующихся с помощью ультразвука.
В Покорении небес 3D, Дэвид Аттенборо путешествует во времени, чтобы разгадать удивительную, 300-миллионолетнюю историю летающих животных. Кто были первые летающие существа, как они развивались, и как приспособились в огромном разнообразии воздухоплавателей, которые заполняют наше небо сегодня? Только теперь он может выяснить скрытую механику преодоления ими земного притяжения, используя передовые CGI-технологии, новейшие технологии съемки с высоким разрешением, и новаторский научный анализ.


Серии:
1. Первые летающие / The First to Fly (00:53:17)
2. Соперники / Rivals (00:52:29)
3. Триумф / Triumph (00:53:07)

Премьера (мир): 25 декабря 2014
..


Качество: BDRip (by Ash61)
Контейнер: MKV
Формат 3D: Half OverUnder / Вертикальная анаморфная стереопара
Порядок ракурсов: левый ракурс первый

Видео: AVC / 23,976 fps / 1920х1080p / 15.4 Mbps; 16.6 Mbps; 14.2 Mbps
Аудио: Английский / AC3 / 48 KHz / 5.1 ch / 640 Kbps (Original - BD 3D)
Субтитры Отсутствуют

General
Unique ID : 200333629298691600579485014257521484752 (0x96B6DA8279F6E3E296744B5C03BD63D0)
Complete name : E:\ConquestOfTheSkies(S01)(2014)3D-halfOU(Ash61)Eng\ConquestOfTheSkies(S01E01)TheFirstToFly(2014)3D-halfOU(Ash61)Eng.mkv
Format : Matroska
Format version : Version 2
File size : 6.10 GiB
Duration : 53mn 16s
Overall bit rate : 16.4 Mbps
Movie name : Покорение небес Дэвида Аттенборо (С01.Э01) Первые летающие / David Attenborough's Conquest of the Skies (S01E01) The First to Fly (2014) 3D
Encoded date : UTC 2015-05-02 16:25:56
Writing application : mkvmerge v5.8.0 ('No Sleep / Pillow') built on Sep 2 2012 15:37:04
Writing library : libebml v1.2.3 + libmatroska v1.3.0

Video
ID : 1
Format : AVC
Format/Info : Advanced Video Codec
Format profile : High@L4.1
Format settings, CABAC : Yes
Format settings, ReFrames : 4 frames
Codec ID : V_MPEG4/ISO/AVC
Duration : 53mn 16s
Bit rate : 15.4 Mbps
Width : 1 920 pixels
Height : 1 080 pixels
Display aspect ratio : 16:9
Frame rate mode : Constant
Frame rate : 23.976 fps
Color space : YUV
Chroma subsampling : 4:2:0
Bit depth : 8 bits
Scan type : Progressive
Bits/(Pixel*Frame) : 0.310
Stream size : 5.74 GiB (94%)
Title : BDRip by Ash61
Writing library : x264 core 138 r2358 9e941d1
Encoding settings : cabac=1 / ref=4 / deblock=1:-3:-3 / analyse=0x3:0x113 / me=umh / subme=10 / psy=1 / psy_rd=1.00:0.00 / mixed_ref=1 / me_range=32 / chroma_me=1 / trellis=2 / 8x8dct=1 / cqm=0 / deadzone=21,11 / fast_pskip=1 / chroma_qp_offset=-2 / threads=12 / lookahead_threads=3 / sliced_threads=0 / nr=0 / decimate=1 / interlaced=0 / bluray_compat=0 / constrained_intra=0 / bframes=10 / b_pyramid=2 / b_adapt=2 / b_bias=0 / direct=3 / weightb=1 / open_gop=0 / weightp=2 / keyint=250 / keyint_min=23 / scenecut=40 / intra_refresh=0 / rc_lookahead=60 / rc=crf / mbtree=1 / crf=15.0 / qcomp=0.70 / qpmin=10 / qpmax=51 / qpstep=4 / vbv_maxrate=40000 / vbv_bufsize=30000 / crf_max=0.0 / nal_hrd=none / frame-packing=4 / ip_ratio=1.40 / aq=1:0.70
Language : English
Default : Yes
Forced : No

Audio
ID : 2
Format : AC-3
Format/Info : Audio Coding 3
Mode extension : CM (complete main)
Format settings, Endianness : Big
Codec ID : A_AC3
Duration : 53mn 16s
Bit rate mode : Constant
Bit rate : 640 Kbps
Channel(s) : 6 channels
Channel positions : Front: L C R, Side: L R, LFE
Sampling rate : 48.0 KHz
Bit depth : 16 bits
Compression mode : Lossy
Stream size : 244 MiB (4%)
Title : Original - BD 3D
Language : English
Default : Yes
Forced : No

Menu
00:00:00.000 : :1. The Dragonfly
00:11:15.425 : :2. The Complex Mating Process
00:14:04.093 : :3. The Atlas Beetle
00:19:57.738 : :4. Butterflies
00:39:27.115 : :5. Moths
00:42:16.325 : :6. The Fly
















Информация о торренте
Торрент:  Зарегистрирован [04 май 2015, 21:29] Для скачивания необходимо Зарегистрироваться!



Если Вы уже зарегистрированы, то авторизуйтесь на трекере!
Статус:   изменил Ash61 (04 май 2015, 21:30)
Размер:  18.2 ГБ (19 538 098 947 байт)
Приватный:  Нет (DHT включён)
Хэш:  04c5f6e69feb68b3cbac
468024192e9bcc182e46
Здоровье:  20%
.torrent скачан:  17
Как тут качать  Правила, основные инструкции, FAQ-и



_________________
Мои релизы на трекере
"Свобода личности заканчивается там, где начинается свобода другой личности"
"Чем больше я узнаю людей, тем больше я люблю собак"


 Профиль  
 
Показать сообщения за:  Поле сортировки  
Начать новую тему Ответить на тему  [ 1 сообщение ] 


Кто сейчас на трекере

Сейчас этот форум просматривают: нет зарегистрированных пользователей и гости: 4


Вы не можете начинать темы
Вы не можете отвечать на сообщения
Вы не можете редактировать свои сообщения
Вы не можете удалять свои сообщения
Вы не можете добавлять вложения

Найти:


Правообладателям

!ВНИМАНИЕ!
Ресурс не предоставляет электронные версии произведений, а занимается лишь коллекционированием и каталогизацией ссылок, присылаемых и публикуемых на форуме нашими читателями. Если вы являетесь правообладателем какого-либо представленного материала и не желаете чтобы ссылка на него находилась в нашем каталоге, свяжитесь с нами и мы незамедлительно удалим её. Файлы для обмена на трекере предоставлены пользователями сайта, и администрация не несёт ответственности за их содержание. Просьба не заливать файлы, защищенные авторскими правами, а также файлы нелегального содержания!
cron
Вверх страницы
Вниз страницы
ppkBB3cker v.2 © 2008-2011 @ PPK