3d-tracker.ru • Просмотр темы - Земля медведей в 3Д / Terre des ours / Land of the Bears 3D (Гийом Венсан / Guillaume Vincent) [2013, Документальный, Видовой, Семейный, BDrip-AVC] Half OverUnder / Вертикальная анаморфная стереопара

Регистрация Имя: Пароль: Запомнить Забыли пароль?



Правила форума





Начать новую тему Ответить на тему  [ Сообщений: 2 ] 
Статистика раздачи
Размер: 12.36 ГБ | Зарегистрирован: 28 май 2015, 15:03 | .torrent скачан: 10
Сиды: 4 [0 байт/сек]    Личи: 16 [0 байт/сек]
Автор Сообщение
 СообщениеДобавлено: 28 май 2015, 15:03 
Не в сети
VIP аплоадер
Аватара пользователя
Зарегистрирован: 13 мар 2012, 16:36
Торренты: 184
Раздал: 53.25 ТБ 
Скачал: 30.21 ТБ 
Ратио: 1.763
Спасибо: 1900 / 2
Сообщения: 167
Комментарии: 32
Откуда: Челны

Земля медведей
Terre des ours
Land of the Bears


Год выпуска: 2013
Страна: Франция (Les Films en Vrac, Cameron Pace Group, Orange Studio, Nature Pictures)
Жанр: Документальный, Видовой, Семейный
Продолжительность: 01:26:12

Перевод: Любительский дублированный - Сергей Корчак (перевод - Владимир Мерленко)

Режиссер: Гийом Венсан / Guillaume Vincent

Рассказчики: Марион Котийяр / Marion Cotillard (на французском), Дэвид Гасман / David Gasman (на английском)

Описание: Документальный фильм рассказывающий о жизни медведей от самого младенчества, до перехода во взрослую жизнь, где никто и никогда больше не будет помогать выжить в суровые и долгие зимы. Фильм пестрит прекрасными пейзажами нетронутой и девственной природы в различные времена года, где каждый сезон манит своей неповторимой красотой. В картине покажут жизнь одной семьи медведей, которая после длительной спячки пробуждается и идет по склонам прекрасных холмов к реке в поисках пропитания и накопления жира на предстоящий зимний сезон.

Премьера: 9 января 2014 (5 января 2014)
..
За русскую дорогу и русские субтитры большое спасибо и меценатам!


Качество: BDRip (by Ash61) (с австралийского BD 3D) [сравнение трансферов внизу]
Контейнер: MKV
Формат 3D: Half OverUnder / Вертикальная анаморфная стереопара
Порядок ракурсов: левый ракурс первый

Видео: AVC / 23,976 fps / 1920х1080p / 18.2 Mbps

Аудио:
#1 - Русский / AC3 / 48 KHz / 5.1 ch / 640 Kbps (Дубляж - Сергей Корчак)
#2 - Английский / AC3 / 48 KHz / 5.1 ch / 640 Kbps (Dubbing - BD 3D Aus)
#3 - Французский / AC3 / 48 KHz / 5.1 ch / 640 Kbps (Original - BD 3D Fre) [отдельным файлом]

Субтитры (внешние SRT UTF-8):
#1 - Русские Полные (Владимир Мерленко)
#2 - English Full
#3 - English SDH
#4 - Французские Полные

General
Unique ID : 173461789816655872558710219932958167158 (0x827F8688938DF158940522C4FC579076)
Complete name : E:\LandOfTheBears(2013)3D-halfOU(BDRip.Ash61)[Aus.Transfer]Dub-S.Korchak\LandOfTheBears(2013)3D-halfOU(BDRip.Ash61)[Aus.Transfer]Dub-S.Korchak.mkv
Format : Matroska
Format version : Version 2
File size : 12.0 GiB
Duration : 1h 26mn
Overall bit rate : 19.9 Mbps
Movie name : Земля медведей / Terre des ours / Land of the Bears (2013) 3D
Encoded date : UTC 2015-05-15 17:45:05
Writing application : mkvmerge v5.8.0 ('No Sleep / Pillow') built on Sep 2 2012 15:37:04
Writing library : libebml v1.2.3 + libmatroska v1.3.0

Video
ID : 1
Format : AVC
Format/Info : Advanced Video Codec
Format profile : High@L4.1
Format settings, CABAC : Yes
Format settings, ReFrames : 4 frames
Codec ID : V_MPEG4/ISO/AVC
Duration : 1h 26mn
Bit rate : 18.2 Mbps
Width : 1 920 pixels
Height : 1 080 pixels
Display aspect ratio : 16:9
Frame rate mode : Constant
Frame rate : 23.976 fps
Color space : YUV
Chroma subsampling : 4:2:0
Bit depth : 8 bits
Scan type : Progressive
Bits/(Pixel*Frame) : 0.366
Stream size : 11.0 GiB (92%)
Title : BDRip by Ash61 (с австралийского BD 3D)
Writing library : x264 core 138 r2358 9e941d1
Encoding settings : cabac=1 / ref=4 / deblock=1:-3:-3 / analyse=0x3:0x113 / me=umh / subme=10 / psy=1 / psy_rd=1.00:0.00 / mixed_ref=1 / me_range=32 / chroma_me=1 / trellis=2 / 8x8dct=1 / cqm=0 / deadzone=21,11 / fast_pskip=1 / chroma_qp_offset=-2 / threads=12 / lookahead_threads=3 / sliced_threads=0 / nr=0 / decimate=1 / interlaced=0 / bluray_compat=0 / constrained_intra=0 / bframes=11 / b_pyramid=2 / b_adapt=2 / b_bias=0 / direct=3 / weightb=1 / open_gop=0 / weightp=2 / keyint=250 / keyint_min=23 / scenecut=40 / intra_refresh=0 / rc_lookahead=60 / rc=crf / mbtree=1 / crf=15.5 / qcomp=0.70 / qpmin=10 / qpmax=51 / qpstep=4 / vbv_maxrate=40000 / vbv_bufsize=30000 / crf_max=0.0 / nal_hrd=none / frame-packing=4 / ip_ratio=1.40 / aq=1:0.70
Language : French
Default : Yes
Forced : No

Audio #1
ID : 2
Format : AC-3
Format/Info : Audio Coding 3
Mode extension : CM (complete main)
Format settings, Endianness : Big
Codec ID : A_AC3
Duration : 1h 26mn
Bit rate mode : Constant
Bit rate : 640 Kbps
Channel(s) : 6 channels
Channel positions : Front: L C R, Side: L R, LFE
Sampling rate : 48.0 KHz
Bit depth : 16 bits
Compression mode : Lossy
Stream size : 395 MiB (3%)
Title : Дубляж - Сергей Корчак (перевод - Владимир Мерленко)
Language : Russian
Default : Yes
Forced : No

Audio #2
ID : 3
Format : AC-3
Format/Info : Audio Coding 3
Mode extension : CM (complete main)
Format settings, Endianness : Big
Codec ID : A_AC3
Duration : 1h 26mn
Bit rate mode : Constant
Bit rate : 640 Kbps
Channel(s) : 6 channels
Channel positions : Front: L C R, Side: L R, LFE
Sampling rate : 48.0 KHz
Bit depth : 16 bits
Compression mode : Lossy
Stream size : 395 MiB (3%)
Title : Dubbing - David Gasman (from Australian BD 3D)
Language : English
Default : No
Forced : No

Menu
00:00:00.000 : :1
00:04:43.408 : :2
00:06:19.671 : :3
00:15:29.595 : :4
00:20:06.414 : :5
00:27:38.699 : :6
00:35:26.833 : :7
00:40:18.291 : :8
00:47:38.022 : :9
00:55:06.762 : :10
01:01:43.742 : :11
01:08:20.805 : :12
01:16:04.351 : :13
01:21:24.421 : :14


BD 3D Aus.....................................................BD 3D Fre




Информация о торренте
Торрент:  Зарегистрирован [28 май 2015, 15:03] Для скачивания необходимо Зарегистрироваться!



Если Вы уже зарегистрированы, то авторизуйтесь на трекере!
Статус:   изменил Ash61 (28 май 2015, 15:03)
Размер:  12.36 ГБ (13 272 929 293 байт)
Приватный:  Нет (DHT включён)
Хэш:  c5fa8a0cff3b1a8632bc
ec37f0c36922c2368f84
Здоровье:  25%
.torrent скачан:  10
Как тут качать  Правила, основные инструкции, FAQ-и



_________________
Мои релизы на трекере
"Свобода личности заканчивается там, где начинается свобода другой личности"
"Чем больше я узнаю людей, тем больше я люблю собак"


 Профиль  
 
 СообщениеДобавлено: 25 июл 2015, 10:14 
Не в сети
заглянувший
Зарегистрирован: 12 окт 2012, 12:28
Торренты: 0
Раздал: 52.05 ГБ 
Скачал: 53.4 ГБ 
Ратио: 0.975
Спасибо: 0 / 0
Сообщения: 1
Комментарии: 1
спасибо!


 Профиль  
 
Показать сообщения за:  Поле сортировки  
Начать новую тему Ответить на тему  [ Сообщений: 2 ] 


Кто сейчас на трекере

Сейчас этот форум просматривают: Google [Bot] и гости: 4


Вы не можете начинать темы
Вы не можете отвечать на сообщения
Вы не можете редактировать свои сообщения
Вы не можете удалять свои сообщения
Вы не можете добавлять вложения

Найти:


Правообладателям

!ВНИМАНИЕ!
Ресурс не предоставляет электронные версии произведений, а занимается лишь коллекционированием и каталогизацией ссылок, присылаемых и публикуемых на форуме нашими читателями. Если вы являетесь правообладателем какого-либо представленного материала и не желаете чтобы ссылка на него находилась в нашем каталоге, свяжитесь с нами и мы незамедлительно удалим её. Файлы для обмена на трекере предоставлены пользователями сайта, и администрация не несёт ответственности за их содержание. Просьба не заливать файлы, защищенные авторскими правами, а также файлы нелегального содержания!
cron
Вверх страницы
Вниз страницы
ppkBB3cker v.2 © 2008-2011 @ PPK