3d-tracker.ru • Просмотр темы - World Cities / 3D (2014) [1080p, Half Side-by-Side / Горизонтальная анаморфная стереопара]

Регистрация Имя: Пароль: Запомнить Забыли пароль?



Правила форума





Начать новую тему Ответить на тему  [ 1 сообщение ] 
Статистика раздачи
Размер: 2.38 ГБ | Зарегистрирован: 09 фев 2016, 10:23 | .torrent скачан: 9
Сиды: 118 [0 байт/сек]    Личи: 33 [0 байт/сек]
Автор Сообщение
 СообщениеДобавлено: 09 фев 2016, 10:23 
Не в сети
Бывалый
Зарегистрирован: 07 июн 2014, 08:13
Торренты: 51
Раздал: 1.52 ТБ 
Скачал: 946.23 ГБ 
Ратио: 1.644
Спасибо: 203 / 430
Сообщения: 150
Комментарии: 157

Название: Города мира
Оригинальное название: World Cities
Год выпуска: 2014
Жанр: документальный, путешествия, релакс
Перевод: не нужен
Продолжительность: 00:26:21
Размер: 2,38 Gb

Качество: (1080p)
Видео: AVC, 13000 Кбит/с, 1920х1080, 23.962 кадр/с
Аудио: AC3, 2 ch, 256 Кбит/с

Формат 3D: Half Side-by-Side / Горизонтальная анаморфная стереопара
Порядок ракурсов: левый-первый
Полное имя : D:\AV\World.Cities.3D.2014.1080p.H-SBS.mkv
Формат : Matroska
Версия формата : Version 4 / Version 2
Размер файла : 2,38 Гбайт
Продолжительность : 26 м.
Общий поток : 12,9 Мбит/сек
Дата кодирования : UTC 2016-02-08 18:04:14
Программа кодирования : mkvmerge v8.3.0 ('Over the Horizon') 64bit
Библиотека кодирования : libebml v1.3.1 + libmatroska v1.4.2

Видео
Идентификатор : 1
Формат : AVC
Формат/Информация : Advanced Video Codec
Профиль формата : High@L4.1
Параметр CABAC формата : Да
Параметр ReFrames формата : 4 кадра
Идентификатор кодека : V_MPEG4/ISO/AVC
Продолжительность : 26 м.
Битрейт : 13,0 Мбит/сек
Ширина : 1920 пикселей
Высота : 1080 пикселей
Соотношение сторон : 16:9
Режим частоты кадров : Постоянный
Частота кадров : 23,962 кадра/сек
Цветовое пространство : YUV
Субдискретизация насыщенности : 4:2:0
Битовая глубина : 8 бит
Тип развёртки : Прогрессивная
Бит/(Пиксели*Кадры) : 0.262
Размер потока : 2,29 Гбайт (96%)
Заголовок : 1080p, hsbs
Библиотека кодирования : x264 core 129
Язык : English
Default : Да
Forced : Нет
DURATION : 00:26:21.379000000

Аудио
Идентификатор : 2
Формат : AC-3
Формат/Информация : Audio Coding 3
Расширение режима : CM (complete main)
Параметр Endianness формата : Big
Идентификатор кодека : A_AC3
Продолжительность : 26 м.
Вид битрейта : Постоянный
Битрейт : 256 Кбит/сек
Каналы : 2 канала
Расположение каналов : Front: L R
Частота : 48,0 КГц
Битовая глубина : 16 бит
Размер потока : 48,3 Мбайт (2%)
Заголовок : 2 ch, 256 kb/s
Язык : English
Default : Да
Forced : Нет


Информация о торренте
Торрент:  Зарегистрирован [09 фев 2016, 10:23] Для скачивания необходимо Зарегистрироваться!



Если Вы уже зарегистрированы, то авторизуйтесь на трекере!
Статус:   изменил Soldat (09 фев 2016, 10:46)
Размер:  2.38 ГБ (2 558 704 024 байт)
Приватный:  Нет (DHT включён)
Хэш:  d6f340c8d8f5893e16d8
131a67b4e843dd1db5a2
Здоровье:  100%
.torrent скачан:  9
Как тут качать  Правила, основные инструкции, FAQ-и




 Профиль  
 
Показать сообщения за:  Поле сортировки  
Начать новую тему Ответить на тему  [ 1 сообщение ] 


Кто сейчас на трекере

Сейчас этот форум просматривают: нет зарегистрированных пользователей и гости: 2


Вы не можете начинать темы
Вы не можете отвечать на сообщения
Вы не можете редактировать свои сообщения
Вы не можете удалять свои сообщения
Вы не можете добавлять вложения

Найти:


Правообладателям

!ВНИМАНИЕ!
Ресурс не предоставляет электронные версии произведений, а занимается лишь коллекционированием и каталогизацией ссылок, присылаемых и публикуемых на форуме нашими читателями. Если вы являетесь правообладателем какого-либо представленного материала и не желаете чтобы ссылка на него находилась в нашем каталоге, свяжитесь с нами и мы незамедлительно удалим её. Файлы для обмена на трекере предоставлены пользователями сайта, и администрация не несёт ответственности за их содержание. Просьба не заливать файлы, защищенные авторскими правами, а также файлы нелегального содержания!
cron
Вверх страницы
Вниз страницы
ppkBB3cker v.2 © 2008-2011 @ PPK