3d-tracker.ru • Просмотр темы - Дайвинг / 3D (2012) [1080p, Zoom Half OverUnder / Вертикальная анаморфная стереопара]

Регистрация Имя: Пароль: Запомнить Забыли пароль?



Правила форума





Начать новую тему Ответить на тему  [ 1 сообщение ] 
Статистика раздачи
Размер: 2.17 ГБ | Зарегистрирован: 10 фев 2016, 19:02 | .torrent скачан: 0
Сиды: 3 [0 байт/сек]    Личи: 6 [0 байт/сек]
Автор Сообщение
 СообщениеДобавлено: 10 фев 2016, 19:02 
Не в сети
Бывалый
Зарегистрирован: 07 июн 2014, 08:13
Торренты: 52
Раздал: 1.77 ТБ 
Скачал: 1004.48 ГБ 
Ратио: 1.805
Спасибо: 217 / 506
Сообщения: 150
Комментарии: 158

Название: Дайвинг
Год выпуска: 2012
Жанр: документальный, релакс
Перевод: не нужен
Продолжительность: 00:29:19
Размер: 2,17 Gb

Качество: (1080p)
Видео: AVC, 10100 Кбит/с, 1920х1080, 23.962 кадр/с
Аудио: AC3, 2 ch, 320 Кбит/с

Формат 3D: Half OverUnder / Вертикальная анаморфная стереопара
Порядок ракурсов: левый-первый
Полное имя : D:\Раздача\Dayving.3D.1080p.H-OU.mkv
Формат : Matroska
Версия формата : Version 4 / Version 2
Размер файла : 2,17 Гбайт
Продолжительность : 29 м.
Общий поток : 10,6 Мбит/сек
Дата кодирования : UTC 2016-02-10 12:11:39
Программа кодирования : mkvmerge v7.1.0 ('Good Love') 64bit built on Jul 27 2014 13:06:55
Библиотека кодирования : libebml v1.3.0 + libmatroska v1.4.1

Видео
Идентификатор : 1
Формат : AVC
Формат/Информация : Advanced Video Codec
Профиль формата : High@L4.1
Параметр CABAC формата : Да
Параметр ReFrames формата : 4 кадра
Идентификатор кодека : V_MPEG4/ISO/AVC
Продолжительность : 29 м.
Битрейт : 10,1 Мбит/сек
Ширина : 1920 пикселей
Высота : 1080 пикселей
Соотношение сторон : 16:9
Режим частоты кадров : Постоянный
Частота кадров : 23,962 кадра/сек
Цветовое пространство : YUV
Субдискретизация насыщенности : 4:2:0
Битовая глубина : 8 бит
Тип развёртки : Прогрессивная
Бит/(Пиксели*Кадры) : 0.203
Размер потока : 2,07 Гбайт (95%)
Заголовок : 1080p, 3D.HOU
Язык : English
Default : Да
Forced : Нет
DURATION : 00:29:18.949000000

Аудио
Идентификатор : 2
Формат : AC-3
Формат/Информация : Audio Coding 3
Расширение режима : CM (complete main)
Параметр Endianness формата : Big
Идентификатор кодека : A_AC3
Продолжительность : 29 м.
Вид битрейта : Постоянный
Битрейт : 320 Кбит/сек
Каналы : 2 канала
Расположение каналов : Front: L R
Частота : 48,0 КГц
Битовая глубина : 16 бит
Метод сжатия : С потерями
Размер потока : 67,1 Мбайт (3%)
Заголовок : 2 ch, 320 kb/s
Язык : English
Default : Да
Forced : Нет

Информация о торренте
Торрент:  Зарегистрирован [10 фев 2016, 19:02] Для скачивания необходимо Зарегистрироваться!



Если Вы уже зарегистрированы, то авторизуйтесь на трекере!
Статус:   изменил Soldat (10 фев 2016, 19:28)
Размер:  2.17 ГБ (2 335 218 953 байт)
Приватный:  Нет (DHT включён)
Хэш:  3e25fdf4b50c24c7c2a2
9e15fb90648014450890
Здоровье:  50%
.torrent скачан:  0
Как тут качать  Правила, основные инструкции, FAQ-и




 Профиль  
 
Показать сообщения за:  Поле сортировки  
Начать новую тему Ответить на тему  [ 1 сообщение ] 


Кто сейчас на трекере

Сейчас этот форум просматривают: нет зарегистрированных пользователей и гости: 1


Вы не можете начинать темы
Вы не можете отвечать на сообщения
Вы не можете редактировать свои сообщения
Вы не можете удалять свои сообщения
Вы не можете добавлять вложения

Найти:


Правообладателям

!ВНИМАНИЕ!
Ресурс не предоставляет электронные версии произведений, а занимается лишь коллекционированием и каталогизацией ссылок, присылаемых и публикуемых на форуме нашими читателями. Если вы являетесь правообладателем какого-либо представленного материала и не желаете чтобы ссылка на него находилась в нашем каталоге, свяжитесь с нами и мы незамедлительно удалим её. Файлы для обмена на трекере предоставлены пользователями сайта, и администрация не несёт ответственности за их содержание. Просьба не заливать файлы, защищенные авторскими правами, а также файлы нелегального содержания!
cron
Вверх страницы
Вниз страницы
ppkBB3cker v.2 © 2008-2011 @ PPK