3d-tracker.ru • Просмотр темы - Ночной Баку / 3D (2013) [720p, Half OU / Вертикальная анаморфная стереопара]

Регистрация Имя: Пароль: Запомнить Забыли пароль?



Правила форума





Начать новую тему Ответить на тему  [ 1 сообщение ] 
Статистика раздачи
Размер: 200.26 МБ | Зарегистрирован: 15 фев 2016, 14:44 | .torrent скачан: 8
Сиды: 4 [0 байт/сек]    Личи: 4 [0 байт/сек]
Автор Сообщение
 СообщениеДобавлено: 15 фев 2016, 14:44 
Не в сети
Бывалый
Зарегистрирован: 15 май 2014, 15:05
Торренты: 37
Раздал: 2.93 ТБ 
Скачал: 1.24 ТБ 
Ратио: 2.362
Спасибо: 211 / 604
Сообщения: 128
Комментарии: 123

Музыкальное видео 3D!
Название: Ночное Баку
Жанр: музыкальный ролик, документальный
Перевод: не нужен
Продолжительность: 00:03:38
Размер: 200 Мб

Качество: (720p)
Видео: AVC, 7220 Кбит/с, 25.000 кадр/с
Аудио: AC3, 2 ch, 320 Кбит/с

Формат 3D: Half OverUnder / Вертикальная анаморфная стереопара
Порядок ракурсов: левый-первый
Полное имя : D:\Раздача\No4noi.Bacu.2013.720p.hou.mkv
Формат : Matroska
Версия формата : Version 4 / Version 2
Размер файла : 200 Мбайт
Продолжительность : 3 м. 38 с.
Общий поток : 7693 Кбит/сек
Дата кодирования : UTC 2016-02-15 09:13:45
Программа кодирования : mkvmerge v7.1.0 ('Good Love') 64bit built on Jul 27 2014 13:06:55
Библиотека кодирования : libebml v1.3.0 + libmatroska v1.4.1

Видео
Идентификатор : 1
Формат : AVC
Формат/Информация : Advanced Video Codec
Профиль формата : High@L3.1
Параметр CABAC формата : Да
Параметр ReFrames формата : 2 кадра
Идентификатор кодека : V_MPEG4/ISO/AVC
Продолжительность : 3 м. 38 с.
Битрейт : 7220 Кбит/сек
Ширина : 1280 пикселей
Высота : 720 пикселей
Соотношение сторон : 16:9
Режим частоты кадров : Постоянный
Частота кадров : 25,000 кадров/сек
Цветовое пространство : YUV
Субдискретизация насыщенности : 4:2:0
Битовая глубина : 8 бит
Тип развёртки : Прогрессивная
Бит/(Пиксели*Кадры) : 0.313
Размер потока : 188 Мбайт (94%)
Заголовок : 720p, hou
Язык : English
Default : Да
Forced : Нет
DURATION : 00:03:38.360000000

Аудио
Идентификатор : 2
Формат : AC-3
Формат/Информация : Audio Coding 3
Расширение режима : CM (complete main)
Параметр Endianness формата : Big
Идентификатор кодека : A_AC3
Продолжительность : 3 м. 38 с.
Вид битрейта : Постоянный
Битрейт : 320 Кбит/сек
Каналы : 2 канала
Расположение каналов : Front: L R
Частота : 48,0 КГц
Битовая глубина : 16 бит
Метод сжатия : С потерями
Размер потока : 8,33 Мбайт (4%)
Заголовок : 2 ch, 192 kb/s
Язык : English
Default : Да
Forced : Нет

Информация о торренте
Торрент:  Зарегистрирован [15 фев 2016, 14:44] Для скачивания необходимо Зарегистрироваться!



Если Вы уже зарегистрированы, то авторизуйтесь на трекере!
Статус:   изменил Soldat (15 фев 2016, 14:49)
Размер:  200.26 МБ (209 986 722 байт)
Приватный:  Нет (DHT включён)
Хэш:  7f0788b14b524a6f16b3
7ee43b549bb88a308f3f
Здоровье:  100%
.torrent скачан:  8
Как тут качать  Правила, основные инструкции, FAQ-и




 Профиль  
 
Показать сообщения за:  Поле сортировки  
Начать новую тему Ответить на тему  [ 1 сообщение ] 


Кто сейчас на трекере

Сейчас этот форум просматривают: Google [Bot] и гости: 1


Вы не можете начинать темы
Вы не можете отвечать на сообщения
Вы не можете редактировать свои сообщения
Вы не можете удалять свои сообщения
Вы не можете добавлять вложения

Найти:


Правообладателям

!ВНИМАНИЕ!
Ресурс не предоставляет электронные версии произведений, а занимается лишь коллекционированием и каталогизацией ссылок, присылаемых и публикуемых на форуме нашими читателями. Если вы являетесь правообладателем какого-либо представленного материала и не желаете чтобы ссылка на него находилась в нашем каталоге, свяжитесь с нами и мы незамедлительно удалим её. Файлы для обмена на трекере предоставлены пользователями сайта, и администрация не несёт ответственности за их содержание. Просьба не заливать файлы, защищенные авторскими правами, а также файлы нелегального содержания!
cron
Вверх страницы
Вниз страницы
ppkBB3cker v.2 © 2008-2011 @ PPK