3d-tracker.ru • Просмотр темы - Снупи и мелочь пузатая в кино в 3Д / The Peanuts Movie 3D (2015) [BD3D-rip, 3D OverUnder 2072p - полная вертикальная стереопара]

Регистрация Имя: Пароль: Запомнить Забыли пароль?



Правила форума





Начать новую тему Ответить на тему  [ 1 сообщение ] 
Статистика раздачи
Размер: 7.48 ГБ | Зарегистрирован: 29 фев 2016, 20:14 | .torrent скачан: 1
Сиды: 5 [0 байт/сек]    Личи: 0 [0 байт/сек]
Автор Сообщение
 СообщениеДобавлено: 29 фев 2016, 20:14 
В сети
Супермодератор
Аватара пользователя
Зарегистрирован: 15 апр 2014, 21:21
Торренты: 466
Раздал: 34.82 ТБ 
Скачал: 1.83 ТБ 
Ратио: 30.093
Спасибо: 2682 / 183
Сообщения: 614
Комментарии: 273
Откуда: РОССИЯ, ЦФО

*ВНИМАНИЕ! На 3D FullHD-телевизорах встроенными плеерами воспроизводиться НЕ БУДЕТ!!!
Также, на некоторых моделях UltraHD (4K) рипы высокого разрешения самостоятельно не воспроизводятся.


Название: Снупи и мелочь пузатая в кино
Оригинальное название: The Peanuts Movie
Год выхода: 2015
Жанр: мультфильм, комедия, приключения, семейный

Режиссер: Стив Мартино
В ролях: Тромбоун Шорти, Ребекка Блум, Анастасия Бредихина, Франческа Капальди, Кристин Ченоуэт, Александр Гарфин, Ной Джонстон, Билл Мелендес, Хэдли Белль Миллер, Мика Ревелли
Сюжет фильма: Чарли Браун, Снупи, Люси, Линус и другие полюбившиеся персонажи комиксов «Мелочь пузатая» впервые появятся на большом экране в полнометражном анимационном фильме, снятом с использованием последних достижений 3D-анимации. Снупи – самый симпатичный пес в мире - к тому же, классный пилот - отправляется в невероятные воздушные приключения в погоне за главным злодеем Красным Бароном. В это время у его приятеля Чарли Брауна начинаются поистине эпические приключения!

Источник: The.Peanuts.Movie.2015.3D.COMPLETE.BLURAY-HDCLUB

Качество: BD3D-Rip by SOLdAt
Видео: 1920x2072, 23.976 fps, MPEG-4 AVC, 10200 kbps avg
Aудио#1: Russian: 48 kHz, AC3, 3/2 (L,C,R,l,r) + LFE ch, 448 kbps avg |Дубляж, iTunes Russia|
Aудио#2: English: 48 kHz, AC3, 3/2 (L,C,R,l,r) + LFE ch, 640 kbps avg |Descriptive|
Aудио#3: Ukrainian: 48 kHz, AC3, 3/2 (L,R) ch, 640 kbps avg |Дубляж, iTunes Russia|
Субтитры: Russian (Forced, iTunes), Russian (iTunes), English
Размер: 7,48 Гб
Продолжительность: 01:28:06

Сохранены оригинальные главы как на Blu-ray.

Формат 3D: OverUnder / Полная вертикальная стереопара
Порядок ракурсов: правый(нижний)ракурс - первый
Полное имя : E:\Раздача\THE.PEANUTS.MOVIE.3D.2015.2072p.OU.mkv
Формат : Matroska
Версия формата : Version 4 / Version 2
Размер файла : 7,48 Гбайт
Продолжительность : 1 ч. 28 м.
Общий поток : 12,2 Мбит/сек
Название фильма : THE_PEANUTS_MOVIE_3D.Title0.BlurayRip
Дата кодирования : UTC 2016-02-29 14:33:49
Программа кодирования : mkvmerge v7.1.0 ('Good Love') 64bit built on Jul 27 2014 13:06:55
Библиотека кодирования : libebml v1.3.0 + libmatroska v1.4.1
DURATION : 01:28:06.256000000
Видео
Идентификатор : 1
Формат : AVC
Формат/Информация : Advanced Video Codec
Профиль формата : Main@L5.0
Параметр CABAC формата : Да
Параметр ReFrames формата : 2 кадра
Идентификатор кодека : V_MPEG4/ISO/AVC
Продолжительность : 1 ч. 28 м.
Битрейт : 10,2 Мбит/сек
Ширина : 1920 пикселей
Высота : 2072 пикселя
Соотношение сторон : 0,927
Режим частоты кадров : Постоянный
Частота кадров : 23,976 кадра/сек
Цветовое пространство : YUV
Субдискретизация насыщенности : 4:2:0
Битовая глубина : 8 бит
Тип развёртки : Прогрессивная
Бит/(Пиксели*Кадры) : 0.107
Размер потока : 6,27 Гбайт (84%)
Заголовок : 2072p, by_SOLdAt, OU
Библиотека кодирования : x264 core
Язык : English
Default : Да
Forced : Нет
Основные цвета : BT.709
Характеристики трансфера : BT.709
Коэффициенты матрицы : BT.709
colour_range : Limited
Аудио #1
Идентификатор : 2
Формат : AC-3
Формат/Информация : Audio Coding 3
Расширение режима : CM (complete main)
Параметр Endianness формата : Big
Идентификатор кодека : A_AC3
Продолжительность : 1 ч. 28 м.
Вид битрейта : Постоянный
Битрейт : 448 Кбит/сек
Каналы : 6 каналов
Расположение каналов : Front: L C R, Side: L R, LFE
Частота : 48,0 КГц
Битовая глубина : 16 бит
Метод сжатия : С потерями
Задержка видео : 78 мс.
Размер потока : 282 Мбайт (4%)
Заголовок : 6 ch, 448 kb/s
Язык : Russian
Default : Да
Forced : Нет
Аудио #2
Идентификатор : 3
Формат : AC-3
Формат/Информация : Audio Coding 3
Расширение режима : CM (complete main)
Параметр Endianness формата : Big
Идентификатор кодека : A_AC3
Продолжительность : 1 ч. 28 м.
Вид битрейта : Постоянный
Битрейт : 640 Кбит/сек
Каналы : 6 каналов
Расположение каналов : Front: L C R, Side: L R, LFE
Частота : 48,0 КГц
Битовая глубина : 16 бит
Метод сжатия : С потерями
Размер потока : 403 Мбайт (5%)
Заголовок : 6 ch, 640 kb/s
Язык : English
Default : Нет
Forced : Нет
Аудио #3
Идентификатор : 4
Формат : AC-3
Формат/Информация : Audio Coding 3
Расширение режима : CM (complete main)
Параметр Endianness формата : Big
Идентификатор кодека : A_AC3
Продолжительность : 1 ч. 28 м.
Вид битрейта : Постоянный
Битрейт : 640 Кбит/сек
Каналы : 6 каналов
Расположение каналов : Front: L C R, Side: L R, LFE
Частота : 48,0 КГц
Битовая глубина : 16 бит
Метод сжатия : С потерями
Размер потока : 403 Мбайт (5%)
Заголовок : 6 ch, 640 kb/s
Язык : Ukrainian
Default : Нет
Forced : Нет
Текст #1
Идентификатор : 5
Формат : VobSub
Режим смешивания : zlib
Идентификатор кодека : S_VOBSUB
Идентификатор кодека/Информация : The same subtitle format used on DVDs
Язык : Russian
Default : Нет
Forced : Нет
Текст #2
Идентификатор : 6
Формат : VobSub
Режим смешивания : zlib
Идентификатор кодека : S_VOBSUB
Идентификатор кодека/Информация : The same subtitle format used on DVDs
Язык : Russian
Default : Нет
Forced : Нет
Текст #3
Идентификатор : 7
Формат : VobSub
Режим смешивания : zlib
Идентификатор кодека : S_VOBSUB
Идентификатор кодека/Информация : The same subtitle format used on DVDs
Язык : English
Default : Нет
Forced : Нет

Информация о торренте
Торрент:  Зарегистрирован [29 фев 2016, 20:14] Для скачивания необходимо Зарегистрироваться!



Если Вы уже зарегистрированы, то авторизуйтесь на трекере!
Статус:  
Размер:  7.48 ГБ (8 031 548 175 байт)
Приватный:  Нет (DHT включён)
Хэш:  7139f1ef6ef2c1f32e1a
cd37b71a28d1f21c5daa
Здоровье:  100%
.torrent скачан:  1
Как тут качать  Правила, основные инструкции, FAQ-и



_________________


 Профиль  
 
Показать сообщения за:  Поле сортировки  
Начать новую тему Ответить на тему  [ 1 сообщение ] 


Кто сейчас на трекере

Сейчас этот форум просматривают: нет зарегистрированных пользователей и гости: 1


Вы не можете начинать темы
Вы не можете отвечать на сообщения
Вы не можете редактировать свои сообщения
Вы не можете удалять свои сообщения
Вы не можете добавлять вложения

Найти:


Правообладателям

!ВНИМАНИЕ!
Ресурс не предоставляет электронные версии произведений, а занимается лишь коллекционированием и каталогизацией ссылок, присылаемых и публикуемых на форуме нашими читателями. Если вы являетесь правообладателем какого-либо представленного материала и не желаете чтобы ссылка на него находилась в нашем каталоге, свяжитесь с нами и мы незамедлительно удалим её. Файлы для обмена на трекере предоставлены пользователями сайта, и администрация не несёт ответственности за их содержание. Просьба не заливать файлы, защищенные авторскими правами, а также файлы нелегального содержания!
cron
Вверх страницы
Вниз страницы
ppkBB3cker v.2 © 2008-2011 @ PPK