3d-tracker.ru • Просмотр темы - Битва за планету Терра в 3Д / Battle for Terra 3D (2007) [BDRip, 1080p, Zoom Half OverUnder / Вертикальная анаморфная стереопара на весь экран]

Регистрация Имя: Пароль: Запомнить Забыли пароль?



Правила форума





Начать новую тему Ответить на тему  [ 1 сообщение ] 
Статистика раздачи
Размер: 4.24 ГБ | Зарегистрирован: 01 мар 2016, 11:12 | .torrent скачан: 1
Сиды: 0 [0 байт/сек]    Личи: 10 [0 байт/сек]
Автор Сообщение
 СообщениеДобавлено: 01 мар 2016, 11:12 
В сети
Супермодератор
Аватара пользователя
Зарегистрирован: 15 апр 2014, 21:21
Торренты: 390
Раздал: 29.66 ТБ 
Скачал: 1.83 ТБ 
Ратио: 27.281
Спасибо: 2152 / 135
Сообщения: 545
Комментарии: 243
Откуда: РОССИЯ, ЦФО

Год выпуска: 2007
Страна: США
Студия: MeniThings LLC, Snoot Entertainment
Жанр: мультфильм, фантастика, боевик, приключения, военный

Режиссер: Аристоменис Тсирбас / Aristomenis Tsirbas
Роли озвучивали: Чед Аллен, Розанна Аркетт, Билл Бирч, Брук Блум, Том Коннолли, Брайан Кокс, Дэвид Кросс, Беверли Д`Анджело, Джим Девоти, Крис Эванс, Джеймс Гарнер, Дэнни Гловер, Марк Хэмилл, Алек Холден, Масам Холден, Ванесса Йоханссон, Брайан Джонсон, Дэвид Крамхолц, Фил ЛаМарр, Джастин Лонг, Уорм Миллер, Лорейн Ньюмен, Аманда Пит, Рон Перлман, Деннис Куэйд, Зои Сайдел, Дэнни Трехо, Люк Уилсон, Ивэн Рэйчел Вуд
Роли дублировали: Сергей Степанченко, Вячеслав Гришечкин, Александр Клюквин, Александр Комлев, Евгений Стычкин
Описание: Когда на планете Земля пересохли все реки, исчезли леса, а воздух превратился в пыль, люди исколесили Галактику, чтобы найти себе новый дом. Прекрасная планета Терра стала надеждой людей на спасение. Хитроумное устройство землян Терраформер должен превратить Терру в рай для людей и кошмар для коренных жителей. Катастрофа для террианцев неизбежна, они обречены. Счет идет на дни и часы. И все бы шло по плану, если не одна случайность. Девочка с Терры Молу подбирает раненого пилота — землянина. Они становятся лучшими друзьями и вместе находят хитрый способ спасти Терру — последнюю живую планету Галактики. Они не подозревают, что сразу окажутся в центре бурных, опасных, веселых и удивительных событий…

Качество: BDRip (1080p) by SOLdAt
Видео: AVC / High@L4.0 / 23,976 fps / 1920x1080p / 7122 kbps
Аудио : AC3 / 5.1 ch / 640 kbps / 16 bit / Русский дубляж BD RUS
Субтитры: нет
Размер: 4,24 Гб
Продолжительность: 01:16:36
Перевод: Профессиональный (дублированный)

Формат 3D: Zoom Half OverUnder / Вертикальная анаморфная стереопара на весь экран (16:9)
Порядок ракурсов: левый ракурс-первый
Полное имя : E:\Раздача\Battle.for.Terra.3D.2007.1080p.H-OU.mkv
Формат : Matroska
Версия формата : Version 4 / Version 2
Размер файла : 4,24 Гбайт
Продолжительность : 1 ч. 16 м.
Общий поток : 7919 Кбит/сек
Дата кодирования : UTC 2016-03-01 05:31:00
Программа кодирования : mkvmerge v7.1.0 ('Good Love') 64bit
Библиотека кодирования : libebml v1.3.0 + libmatroska v1.4.1
DURATION : 01:16:36.096000000
Видео
Идентификатор : 1
Формат : AVC
Формат/Информация : Advanced Video Codec
Профиль формата : High@L4.0
Параметр CABAC формата : Да
Параметр ReFrames формата : 4 кадра
Идентификатор кодека : V_MPEG4/ISO/AVC
Продолжительность : 1 ч. 16 м.
Битрейт : 7122 Кбит/сек
Ширина : 1920 пикселей
Высота : 1080 пикселей
Соотношение сторон : 16:9
Режим частоты кадров : Постоянный
Частота кадров : 23,976 кадра/сек
Цветовое пространство : YUV
Субдискретизация насыщенности : 4:2:0
Битовая глубина : 8 бит
Тип развёртки : Прогрессивная
Бит/(Пиксели*Кадры) : 0.143
Размер потока : 3,81 Гбайт (90%)
Заголовок : Rip by SOLdAt
Язык : English
Default : Да
Forced : Нет
Аудио
Идентификатор : 2
Формат : AC-3
Формат/Информация : Audio Coding 3
Расширение режима : CM (complete main)
Параметр Endianness формата : Big
Идентификатор кодека : A_AC3
Продолжительность : 1 ч. 16 м.
Вид битрейта : Постоянный
Битрейт : 640 Кбит/сек
Каналы : 6 каналов
Расположение каналов : Front: L C R, Side: L R, LFE
Частота : 48,0 КГц
Битовая глубина : 16 бит
Размер потока : 351 Мбайт (8%)
Заголовок : 6 ch, 640 kb/s
Язык : Russian
Default : Да
Forced : Нет

Информация о торренте
Торрент:  Зарегистрирован [01 мар 2016, 11:12] Для скачивания необходимо Зарегистрироваться!



Если Вы уже зарегистрированы, то авторизуйтесь на трекере!
Статус:  
Размер:  4.24 ГБ (4 549 669 697 байт)
Приватный:  Нет (DHT включён)
Хэш:  b5d7fdc1fc622eb8c9a3
435cd52edb49765bd9c7
Здоровье:  ???%
.torrent скачан:  1
Как тут качать  Правила, основные инструкции, FAQ-и



_________________


 Профиль  
 
Показать сообщения за:  Поле сортировки  
Начать новую тему Ответить на тему  [ 1 сообщение ] 


Кто сейчас на трекере

Сейчас этот форум просматривают: нет зарегистрированных пользователей и гости: 15


Вы не можете начинать темы
Вы не можете отвечать на сообщения
Вы не можете редактировать свои сообщения
Вы не можете удалять свои сообщения
Вы не можете добавлять вложения

Найти:


Правообладателям

!ВНИМАНИЕ!
Ресурс не предоставляет электронные версии произведений, а занимается лишь коллекционированием и каталогизацией ссылок, присылаемых и публикуемых на форуме нашими читателями. Если вы являетесь правообладателем какого-либо представленного материала и не желаете чтобы ссылка на него находилась в нашем каталоге, свяжитесь с нами и мы незамедлительно удалим её. Файлы для обмена на трекере предоставлены пользователями сайта, и администрация не несёт ответственности за их содержание. Просьба не заливать файлы, защищенные авторскими правами, а также файлы нелегального содержания!
cron
Вверх страницы
Вниз страницы
ppkBB3cker v.2 © 2008-2011 @ PPK