3d-tracker.ru • Просмотр темы - Петергоф в 3Д / 3D (2015) [1080p, Half OU / Вертикальная анаморфная стереопара на весь экран]

Регистрация Имя: Пароль: Запомнить Забыли пароль?



Правила форума





Начать новую тему Ответить на тему  [ Сообщений: 2 ] 
Статистика раздачи
Размер: 1.14 ГБ | Зарегистрирован: 29 мар 2016, 10:59 | .torrent скачан: 25
Сиды: 94 [0 байт/сек]    Личи: 31 [0 байт/сек]
Автор Сообщение
 СообщениеДобавлено: 29 мар 2016, 10:59 
Не в сети
Бывалый
Зарегистрирован: 07 июн 2014, 08:13
Торренты: 52
Раздал: 1.77 ТБ 
Скачал: 1004.48 ГБ 
Ратио: 1.805
Спасибо: 217 / 506
Сообщения: 150
Комментарии: 158

Название: Петергоф 3Д
Год выпуска: 2016
Жанр: Документальный, авторский, релакс
Выпущено: Россия

О фильме: Красочное зрелище фонтанов, дворцов и Финского залива.
Снято: в 2015 г на полупрофессиональную 3D HD видеокамеру.
Смонтировано: в 2016 г в проге

Продолжительность: 00:15:35
Размер: 1,14 Гб
Перевод: Не нужен

Качество: (1080p)
Видео: AVC / 23,962 fps / 1920x1080p / 9969 kbps
Аудио : AC3 / 2 ch / 256 kbps

Формат 3D: Half OverUnder / Вертикальная анаморфная стереопара (16:9)
Порядок ракурсов: левый ракурс-первый
Полное имя : E:\AV\Petergof.3D.1080p.2016.HOU.mkv
Формат : Matroska
Версия формата : Version 4 / Version 2
Размер файла : 1,14 Гбайт
Продолжительность : 15 м.
Общий поток : 10,4 Мбит/сек
Дата кодирования : UTC 2016-03-29 05:51:08
Программа кодирования : mkvmerge v8.3.0 ('Over the Horizon') 64bit
Библиотека кодирования : libebml v1.3.1 + libmatroska v1.4.2

Видео
Идентификатор : 1
Формат : AVC
Формат/Информация : Advanced Video Codec
Профиль формата : High@L4.0
Параметр CABAC формата : Да
Параметр ReFrames формата : 2 кадра
Идентификатор кодека : V_MPEG4/ISO/AVC
Продолжительность : 15 м.
Битрейт : 9969 Кбит/сек
Ширина : 1920 пикселей
Высота : 1080 пикселей
Соотношение сторон : 16:9
Режим частоты кадров : Постоянный
Частота кадров : 23,962 кадра/сек
Цветовое пространство : YUV
Субдискретизация насыщенности : 4:2:0
Битовая глубина : 8 бит
Тип развёртки : Прогрессивная
Бит/(Пиксели*Кадры) : 0.201
Размер потока : 1,09 Гбайт (96%)
Заголовок : 1080p, HOU
Язык : English
Default : Да
Forced : Нет
DURATION : 00:15:35.086000000

Аудио
Идентификатор : 2
Формат : AC-3
Формат/Информация : Audio Coding 3
Расширение режима : CM (complete main)
Параметр Endianness формата : Big
Идентификатор кодека : A_AC3
Продолжительность : 15 м.
Вид битрейта : Постоянный
Битрейт : 256 Кбит/сек
Каналы : 2 канала
Расположение каналов : Front: L R
Частота : 48,0 КГц
Битовая глубина : 16 бит
Размер потока : 28,5 Мбайт (2%)
Заголовок : 2 ch, 256 kb/s
Язык : English
Default : Да
Forced : Нет

Информация о торренте
Торрент:  Зарегистрирован [29 мар 2016, 10:59] Для скачивания необходимо Зарегистрироваться!



Если Вы уже зарегистрированы, то авторизуйтесь на трекере!
Статус:   изменил Soldat (29 мар 2016, 11:08)
Размер:  1.14 ГБ (1 219 452 603 байт)
Приватный:  Нет (DHT включён)
Хэш:  d03796f7d5d275fd0161
ba711a43e584e28598ef
Здоровье:  100%
.torrent скачан:  25
Как тут качать  Правила, основные инструкции, FAQ-и




 Профиль  
 
 СообщениеДобавлено: 19 мар 2017, 23:02 
Не в сети
заглянувший
Зарегистрирован: 19 мар 2017, 20:18
Торренты: 0
Раздал: 5.03 ГБ 
Скачал: 7.55 ГБ 
Ратио: None.
Спасибо: 0 / 0
Сообщения: 2
Комментарии: 2
Спасибо!


 Профиль  
 
Показать сообщения за:  Поле сортировки  
Начать новую тему Ответить на тему  [ Сообщений: 2 ] 


Кто сейчас на трекере

Сейчас этот форум просматривают: нет зарегистрированных пользователей и гости: 2


Вы не можете начинать темы
Вы не можете отвечать на сообщения
Вы не можете редактировать свои сообщения
Вы не можете удалять свои сообщения
Вы не можете добавлять вложения

Найти:


Правообладателям

!ВНИМАНИЕ!
Ресурс не предоставляет электронные версии произведений, а занимается лишь коллекционированием и каталогизацией ссылок, присылаемых и публикуемых на форуме нашими читателями. Если вы являетесь правообладателем какого-либо представленного материала и не желаете чтобы ссылка на него находилась в нашем каталоге, свяжитесь с нами и мы незамедлительно удалим её. Файлы для обмена на трекере предоставлены пользователями сайта, и администрация не несёт ответственности за их содержание. Просьба не заливать файлы, защищенные авторскими правами, а также файлы нелегального содержания!
cron
Вверх страницы
Вниз страницы
ppkBB3cker v.2 © 2008-2011 @ PPK