3d-tracker.ru • Просмотр темы - Москва в 3Д / Moscow 3D (2014) [1080p, Half OU / Вертикальная анаморфная стереопара на весь экран]

Регистрация Имя: Пароль: Запомнить Забыли пароль?



Правила форума





Начать новую тему Ответить на тему  [ Сообщений: 3 ] 
Статистика раздачи
Размер: 726.78 МБ | Зарегистрирован: 03 апр 2016, 17:34 | .torrent скачан: 13
Сиды: 227 [0 байт/сек]    Личи: 30 [0 байт/сек]
Автор Сообщение
 СообщениеДобавлено: 03 апр 2016, 17:34 
Не в сети
Супермодератор
Аватара пользователя
Зарегистрирован: 15 апр 2014, 21:21
Торренты: 451
Раздал: 34.37 ТБ 
Скачал: 1.83 ТБ 
Ратио: 29.850
Спасибо: 2559 / 175
Сообщения: 594
Комментарии: 267
Откуда: РОССИЯ, ЦФО

Название: Москва 3Д
Год выпуска: 2016
Жанр: Документальный, авторский

О фильме: Красочные виды столицы РФ!
Снято: На полупрофессиональную 3D HD видеокамеру.

Продолжительность: 00:07:37
Размер: 727 Мб
Перевод: Не нужен

Качество: (1080p)
Видео: AVC / 23,976 fps / 1920x1080p / 13000 kbps
Аудио : AC3 / 2 ch / 256 kbps

Формат 3D: Half OverUnder / Вертикальная анаморфная стереопара (16:9)
Порядок ракурсов: левый ракурс-первый

Полное имя : E:\AV\MOSCOW.3D.1080p.H-OU.mkv
Формат : Matroska
Версия формата : Version 4 / Version 2
Размер файла : 727 Мбайт
Продолжительность : 7 м. 37 с.
Общий поток : 13,3 Мбит/сек
Дата кодирования : UTC 2016-04-03 11:07:35
Программа кодирования : mkvmerge v8.3.0 ('Over the Horizon') 64bit
Библиотека кодирования : libebml v1.3.1 + libmatroska v1.4.2

Видео
Идентификатор : 1
Формат : AVC
Формат/Информация : Advanced Video Codec
Профиль формата : High@L4.1
Параметр CABAC формата : Да
Параметр ReFrames формата : 4 кадра
Идентификатор кодека : V_MPEG4/ISO/AVC
Продолжительность : 7 м. 37 с.
Битрейт : 13,0 Мбит/сек
Ширина : 1920 пикселей
Высота : 1080 пикселей
Соотношение сторон : 16:9
Режим частоты кадров : Постоянный
Частота кадров : 23,976 кадра/сек
Цветовое пространство : YUV
Субдискретизация насыщенности : 4:2:0
Битовая глубина : 8 бит
Тип развёртки : Прогрессивная
Бит/(Пиксели*Кадры) : 0.261
Размер потока : 698 Мбайт (96%)
Заголовок : 1080p, HOU
Библиотека кодирования : x264 core 139 rdmge
Язык : English
Default : Да
Forced : Нет
DURATION : 00:07:37.614000000

Идентификатор : 2
Формат : AC-3
Формат/Информация : Audio Coding 3
Расширение режима : CM (complete main)
Параметр Endianness формата : Big
Идентификатор кодека : A_AC3
Продолжительность : 7 м. 37 с.
Вид битрейта : Постоянный
Битрейт : 256 Кбит/сек
Каналы : 2 канала
Расположение каналов : Front: L R
Частота : 48,0 КГц
Битовая глубина : 16 бит
Размер потока : 14,0 Мбайт (2%)
Заголовок : 2 ch, 256 kb/s
Язык : English
Default : Да
Forced : Нет
Информация о торренте
Торрент:  Зарегистрирован [03 апр 2016, 17:34] Для скачивания необходимо Зарегистрироваться!



Если Вы уже зарегистрированы, то авторизуйтесь на трекере!
Статус:  
Размер:  726.78 МБ (762 083 493 байт)
Приватный:  Нет (DHT включён)
Хэш:  8ddea262d3bab8f229f7
3a0d5e193068c7e9d296
Здоровье:  100%
.torrent скачан:  13
Как тут качать  Правила, основные инструкции, FAQ-и



_________________


 Профиль  
 
 СообщениеДобавлено: 13 апр 2016, 00:38 
Не в сети
заглянувший
Аватара пользователя
Зарегистрирован: 07 дек 2014, 20:56
Торренты: 0
Раздал: 5 ГБ 
Скачал: 0 байт 
Ратио: None.
Спасибо: 0 / 1
Сообщения: 3
Комментарии: 4
Фильм занятный (сам я из Владика, МСК пока не видел в живую). На трекере мало блин фильмов про спорт новых :( Выложите кто может «Златан. Начало» про Ибрагимовича http://films.imhonet.ru/element/10151830/


 Профиль  
 
 СообщениеДобавлено: 13 апр 2016, 11:34 
Не в сети
Бывалый
Зарегистрирован: 07 июн 2014, 08:13
Торренты: 52
Раздал: 1.8 ТБ 
Скачал: 1014.09 ГБ 
Ратио: 1.813
Спасибо: 223 / 576
Сообщения: 148
Комментарии: 160
Mario222222 писал(а):
Выложите кто может «Златан. Начало»

Я даже трейлера на русском не нашла!!!! :du_ma_et:
А тут весь фильм-у нас в России мало кто-свободно говорит по англицки!


 Профиль  
 
Показать сообщения за:  Поле сортировки  
Начать новую тему Ответить на тему  [ Сообщений: 3 ] 


Кто сейчас на трекере

Сейчас этот форум просматривают: Bing [Bot] и гости: 1


Вы не можете начинать темы
Вы не можете отвечать на сообщения
Вы не можете редактировать свои сообщения
Вы не можете удалять свои сообщения
Вы не можете добавлять вложения

Найти:
 cron

Правообладателям

!ВНИМАНИЕ!
Ресурс не предоставляет электронные версии произведений, а занимается лишь коллекционированием и каталогизацией ссылок, присылаемых и публикуемых на форуме нашими читателями. Если вы являетесь правообладателем какого-либо представленного материала и не желаете чтобы ссылка на него находилась в нашем каталоге, свяжитесь с нами и мы незамедлительно удалим её. Файлы для обмена на трекере предоставлены пользователями сайта, и администрация не несёт ответственности за их содержание. Просьба не заливать файлы, защищенные авторскими правами, а также файлы нелегального содержания!
cron
Вверх страницы
Вниз страницы
ppkBB3cker v.2 © 2008-2011 @ PPK