3d-tracker.ru • Просмотр темы - Хищники океанов 3D / Ocean Predators 3D (2013) BDRip 1080p (Half OverUnder / Вертикальная анаморфная стереопара)

Регистрация Имя: Пароль: Запомнить Забыли пароль?



Правила форума





Начать новую тему Ответить на тему  [ Сообщений: 4 ] 
Статистика раздачи
Размер: 4.47 ГБ | Зарегистрирован: 17 ноя 2013, 06:54 | .torrent скачан: 159
Сиды: 124 [0 байт/сек]    Личи: 20 [0 байт/сек]
Автор Сообщение
 СообщениеДобавлено: 17 ноя 2013, 06:57 
Не в сети
Опытный
Зарегистрирован: 05 окт 2012, 01:30
Торренты: 57
Раздал: 18.97 ТБ 
Скачал: 1.67 ТБ 
Ратио: 11.329
Спасибо: 929 / 13
Сообщения: 61
Комментарии: 12
Откуда: Киев

Оригинальное название: Ocean Predators 3D

Страна: США
Продолжительность: 00:57:19
Дата выхода: 2013
Жанр: документальный

О фильме: Присоединяйтесь к захватывающему путешествию в глубины океана в поисках самых опасных хищников! Вас ждет немало поразительных открытий об этих завораживающих и умелых охотниках. Долой мифы и легенды - готовы ли вы узнать настоящую правду об акулах, барракудах и муренах.
Уникальные документальные кадры, снятые с помощью 3D-стереоскопа, покажут все, что вы хотели знать о настоящих Королях Океана!












MediaInfo: Ocean.Predators.3D.2013.1080p.BluRay.Half-OU.AC3.x264.mkv
Format : Matroska
Format version : Version 2
File size : 4.47 GiB
Duration : 57mn 19s
Overall bit rate : 11.2 Mbps
Encoded date : UTC 2013-11-16 21:22:13
Writing application : mkvmerge v4.5.0 ('Speed of Light') сборка от Feb 6 2011 12:51:39
Writing library : libebml v1.2.0 + libmatroska v1.1.0

Video
ID : 1
Format : AVC
Format/Info : Advanced Video Codec
Format profile : High@L4.1
Format settings, CABAC : Yes
Format settings, ReFrames : 2 frames
Muxing mode : Header stripping
Codec ID : V_MPEG4/ISO/AVC
Duration : 57mn 19s
Bit rate : 9 666 Kbps
Width : 1 920 pixels
Height : 1 080 pixels
Display aspect ratio : 16:9
Frame rate : 23.976 fps
Color space : YUV
Chroma subsampling : 4:2:0
Bit depth : 8 bits
Scan type : Progressive
Bits/(Pixel*Frame) : 0.194
Stream size : 3.87 GiB (87%)
Writing library : x264 core
Language : English
Default : Yes
Forced : No
Color primaries : BT.709-5, BT.1361, IEC 61966-2-4, SMPTE RP177
Transfer characteristics : BT.709-5, BT.1361
Matrix coefficients : BT.709-5, BT.1361, IEC 61966-2-4 709, SMPTE RP177

Audio #1
ID : 2
Format : AC-3
Format/Info : Audio Coding 3
Mode extension : CM (complete main)
Format settings, Endianness : Big
Muxing mode : Header stripping
Codec ID : A_AC3
Duration : 57mn 19s
Bit rate mode : Constant
Bit rate : 640 Kbps
Channel(s) : 2 channels
Channel positions : Front: L R
Sampling rate : 48.0 KHz
Bit depth : 16 bits
Compression mode : Lossy
Stream size : 262 MiB (6%)
Language : Russian
Default : Yes
Forced : No

Audio #2
ID : 3
Format : AC-3
Format/Info : Audio Coding 3
Mode extension : CM (complete main)
Format settings, Endianness : Big
Muxing mode : Header stripping
Codec ID : A_AC3
Duration : 57mn 19s
Bit rate mode : Constant
Bit rate : 640 Kbps
Channel(s) : 2 channels
Channel positions : Front: L R
Sampling rate : 48.0 KHz
Bit depth : 16 bits
Compression mode : Lossy
Stream size : 262 MiB (6%)
Language : English
Default : No
Forced : No

Menu
00:00:00.000 : en:00:00:00.000
00:06:34.561 : en:00:06:34.561
00:13:25.596 : en:00:13:25.596
00:20:59.967 : en:00:20:59.967
00:28:03.515 : en:00:28:03.515
00:35:52.859 : en:00:35:52.859
00:42:53.404 : en:00:42:53.404
00:50:45.042 : en:00:50:45.042

Перевод: Дублированный
Контейнер: mkv
Формат аудио: AC3
Язык 1: русский, 640 Kbps, 2 ch, 48.0 KHz
Язык 2: английский, 640 Kbps, 2 ch, 48.0 KHz
Формат видео: x264
Качество видео: BDrip
Размер видео: 1920×1080
формат 3D: Half OverUnder / Вертикальная анаморфная стереопара
Информация о торренте
Торрент:  Зарегистрирован [17 ноя 2013, 06:54] Для скачивания необходимо Зарегистрироваться!



Если Вы уже зарегистрированы, то авторизуйтесь на трекере!
Статус:   изменил Xamjiit (17 ноя 2013, 13:25)
Размер:  4.47 ГБ (4 801 398 539 байт)
Приватный:  Нет (DHT включён)
Хэш:  5b7653c85c996826ae6a
5e9f052e9d9d6f3827e1
Здоровье:  100%
.torrent скачан:  159
Как тут качать  Правила, основные инструкции, FAQ-и




 Профиль  
 
 СообщениеДобавлено: 12 янв 2014, 00:08 
Не в сети
заглянувший
Зарегистрирован: 22 июн 2013, 20:02
Торренты: 0
Раздал: 267.78 ГБ 
Скачал: 641.24 ГБ 
Ратио: 0.418
Спасибо: 0 / 9
Сообщения: 1
Комментарии: 1
отличный фильм


 Профиль  
 
 СообщениеДобавлено: 06 мар 2015, 19:48 
Не в сети
заглянувший
Зарегистрирован: 05 мар 2015, 21:23
Торренты: 0
Раздал: 5.15 ГБ 
Скачал: 12.97 ГБ 
Ратио: 0.397
Спасибо: 0 / 0
Сообщения: 1
Комментарии: 1
спасибо за хорошую загрузку


 Профиль  
 
 СообщениеДобавлено: 22 мар 2017, 23:45 
Не в сети
заглянувший
Зарегистрирован: 19 мар 2017, 20:18
Торренты: 0
Раздал: 5.03 ГБ 
Скачал: 7.55 ГБ 
Ратио: None.
Спасибо: 0 / 0
Сообщения: 2
Комментарии: 2
Благодарю!


 Профиль  
 
Показать сообщения за:  Поле сортировки  
Начать новую тему Ответить на тему  [ Сообщений: 4 ] 


Кто сейчас на трекере

Сейчас этот форум просматривают: GoGo.Ru [Bot], Google [Bot] и гости: 2


Вы не можете начинать темы
Вы не можете отвечать на сообщения
Вы не можете редактировать свои сообщения
Вы не можете удалять свои сообщения
Вы не можете добавлять вложения

Найти:
 cron

Правообладателям

!ВНИМАНИЕ!
Ресурс не предоставляет электронные версии произведений, а занимается лишь коллекционированием и каталогизацией ссылок, присылаемых и публикуемых на форуме нашими читателями. Если вы являетесь правообладателем какого-либо представленного материала и не желаете чтобы ссылка на него находилась в нашем каталоге, свяжитесь с нами и мы незамедлительно удалим её. Файлы для обмена на трекере предоставлены пользователями сайта, и администрация не несёт ответственности за их содержание. Просьба не заливать файлы, защищенные авторскими правами, а также файлы нелегального содержания!
cron
Вверх страницы
Вниз страницы
ppkBB3cker v.2 © 2008-2011 @ PPK