3d-tracker.ru • Просмотр темы - Delicious fight / 3D (2014) [1080p, Half Side-by-Side / Горизонтальная анаморфная стереопара]

Регистрация Имя: Пароль: Запомнить Забыли пароль?



Правила форума





Начать новую тему Ответить на тему  [ 1 сообщение ] 
Статистика раздачи
Размер: 213.35 МБ | Зарегистрирован: 10 фев 2016, 19:15 | .torrent скачан: 7
Сиды: 1 [0 байт/сек]    Личи: 8 [0 байт/сек]
Автор Сообщение
 СообщениеДобавлено: 10 фев 2016, 19:15 
Не в сети
Бывалый
Зарегистрирован: 07 июн 2014, 08:13
Торренты: 52
Раздал: 1.79 ТБ 
Скачал: 1012.97 ГБ 
Ратио: 1.811
Спасибо: 221 / 553
Сообщения: 147
Комментарии: 159

Название: Вкусный бой
Оригинальное название: Delicious fight.
Жанр: Релакс
Перевод: не нужен
Продолжительность: 00:02:35
Размер: 213 Мб

Качество: (1080p)
Видео: AVC, 11000 Кбит/с, 1920х1080, 23.976 кадр/с
Аудио: Русский (AC3, 2 ch, 320 Кбит/с)

Формат 3D: Half Side-by-Side / Горизонтальная анаморфная стереопара
Порядок ракурсов: левый-первый
Полное имя : D:\Раздача\Delicious fight.3D.1080p.H-SBS.mkv
Формат : Matroska
Версия формата : Version 4 / Version 2
Размер файла : 213 Мбайт
Продолжительность : 2 м. 35 с.
Общий поток : 11,5 Мбит/сек
Дата кодирования : UTC 2016-02-10 12:17:03
Программа кодирования : mkvmerge v7.1.0 ('Good Love') 64bit built on Jul 27 2014 13:06:55
Библиотека кодирования : libebml v1.3.0 + libmatroska v1.4.1

Видео
Идентификатор : 1
Формат : AVC
Формат/Информация : Advanced Video Codec
Профиль формата : High@L4.1
Параметр CABAC формата : Да
Параметр ReFrames формата : 4 кадра
Идентификатор кодека : V_MPEG4/ISO/AVC
Продолжительность : 2 м. 35 с.
Битрейт : 11,0 Мбит/сек
Ширина : 1920 пикселей
Высота : 1080 пикселей
Соотношение сторон : 16:9
Режим частоты кадров : Постоянный
Частота кадров : 23,962 кадра/сек
Цветовое пространство : YUV
Субдискретизация насыщенности : 4:2:0
Битовая глубина : 8 бит
Тип развёртки : Прогрессивная
Бит/(Пиксели*Кадры) : 0.221
Размер потока : 203 Мбайт (95%)
Заголовок : 1080p, 3D.HSBS
Язык : English
Default : Да
Forced : Нет
DURATION : 00:02:35.528000000

Аудио
Идентификатор : 2
Формат : AC-3
Формат/Информация : Audio Coding 3
Расширение режима : CM (complete main)
Параметр Endianness формата : Big
Идентификатор кодека : A_AC3
Продолжительность : 2 м. 35 с.
Вид битрейта : Постоянный
Битрейт : 320 Кбит/сек
Каналы : 2 канала
Расположение каналов : Front: L R
Частота : 48,0 КГц
Битовая глубина : 16 бит
Метод сжатия : С потерями
Размер потока : 5,93 Мбайт (3%)
Заголовок : 2 ch, 320 kb/s
Язык : English
Default : Да
Forced : Нет

Информация о торренте
Торрент:  Зарегистрирован [10 фев 2016, 19:15] Для скачивания необходимо Зарегистрироваться!



Если Вы уже зарегистрированы, то авторизуйтесь на трекере!
Статус:   изменил Soldat (10 фев 2016, 19:27)
Размер:  213.35 МБ (223 712 537 байт)
Приватный:  Нет (DHT включён)
Хэш:  f50e5dd7ffc3b86594fb
bbe2683502db685b3352
Здоровье:  12%
.torrent скачан:  7
Как тут качать  Правила, основные инструкции, FAQ-и




 Профиль  
 
Показать сообщения за:  Поле сортировки  
Начать новую тему Ответить на тему  [ 1 сообщение ] 


Кто сейчас на трекере

Сейчас этот форум просматривают: нет зарегистрированных пользователей и гости: 1


Вы не можете начинать темы
Вы не можете отвечать на сообщения
Вы не можете редактировать свои сообщения
Вы не можете удалять свои сообщения
Вы не можете добавлять вложения

Найти:


Правообладателям

!ВНИМАНИЕ!
Ресурс не предоставляет электронные версии произведений, а занимается лишь коллекционированием и каталогизацией ссылок, присылаемых и публикуемых на форуме нашими читателями. Если вы являетесь правообладателем какого-либо представленного материала и не желаете чтобы ссылка на него находилась в нашем каталоге, свяжитесь с нами и мы незамедлительно удалим её. Файлы для обмена на трекере предоставлены пользователями сайта, и администрация не несёт ответственности за их содержание. Просьба не заливать файлы, защищенные авторскими правами, а также файлы нелегального содержания!
cron
Вверх страницы
Вниз страницы
ppkBB3cker v.2 © 2008-2011 @ PPK