3d-tracker.ru • Просмотр темы - Michael Jackson-girlie / 3D (2014) [1080p, Half Side-by-Side / Горизонтальная анаморфная стереопара]

Регистрация Имя: Пароль: Запомнить Забыли пароль?



Правила форума





Начать новую тему Ответить на тему  [ 1 сообщение ] 
Статистика раздачи
Размер: 374.48 МБ | Зарегистрирован: 10 фев 2016, 19:09 | .torrent скачан: 4
Сиды: 6 [0 байт/сек]    Личи: 5 [0 байт/сек]
Автор Сообщение
 СообщениеДобавлено: 10 фев 2016, 19:09 
Не в сети
Бывалый
Зарегистрирован: 07 июн 2014, 08:13
Торренты: 70
Раздал: 2.18 ТБ 
Скачал: 1.07 ТБ 
Ратио: 2.034
Спасибо: 306 / 651
Сообщения: 178
Комментарии: 174

Оригинальное название: Michael Jackson-girlie
Жанр: видеоклип 3Д
Перевод: не нужен(музыка)
Продолжительность: 00:05:04
Размер: 374 Мб
Качество: (1080p)
Видео: AVC, 9798 Кбит/с, 1920х1080, 23.976 кадр/с
Аудио: Русский (AC3, 2 ch, 320 Кбит/с)

Формат 3D: Half Side-by-Side / Горизонтальная анаморфная стереопара
Порядок ракурсов: левый-первый
Полное имя : D:\Раздача\Michael Jackson-girlie.3D.1080p.H-SBS.mkv
Формат : Matroska
Версия формата : Version 4 / Version 2
Размер файла : 374 Мбайт
Продолжительность : 5 м. 4 с.
Общий поток : 10,3 Мбит/сек
Дата кодирования : UTC 2016-02-10 12:15:30
Программа кодирования : mkvmerge v7.1.0 ('Good Love') 64bit built on Jul 27 2014 13:06:55
Библиотека кодирования : libebml v1.3.0 + libmatroska v1.4.1

Видео
Идентификатор : 1
Формат : AVC
Формат/Информация : Advanced Video Codec
Профиль формата : High@L4.1
Параметр CABAC формата : Да
Параметр ReFrames формата : 4 кадра
Идентификатор кодека : V_MPEG4/ISO/AVC
Продолжительность : 5 м. 4 с.
Битрейт : 9798 Кбит/сек
Ширина : 1920 пикселей
Высота : 1080 пикселей
Соотношение сторон : 16:9
Режим частоты кадров : Постоянный
Частота кадров : 23,962 кадра/сек
Цветовое пространство : YUV
Субдискретизация насыщенности : 4:2:0
Битовая глубина : 8 бит
Тип развёртки : Прогрессивная
Бит/(Пиксели*Кадры) : 0.197
Размер потока : 355 Мбайт (95%)
Заголовок : 1080p, 3D.HSBS
Язык : English
Default : Да
Forced : Нет
DURATION : 00:05:04.297000000

Аудио
Идентификатор : 2
Формат : AC-3
Формат/Информация : Audio Coding 3
Расширение режима : CM (complete main)
Параметр Endianness формата : Big
Идентификатор кодека : A_AC3
Продолжительность : 5 м. 4 с.
Вид битрейта : Постоянный
Битрейт : 320 Кбит/сек
Каналы : 2 канала
Расположение каналов : Front: L R
Частота : 48,0 КГц
Битовая глубина : 16 бит
Метод сжатия : С потерями
Размер потока : 11,6 Мбайт (3%)
Заголовок : 2 ch, 320 kb/s
Язык : English
Default : Да
Forced : Нет

Информация о торренте
Торрент:  Зарегистрирован [10 фев 2016, 19:09] Для скачивания необходимо Зарегистрироваться!



Если Вы уже зарегистрированы, то авторизуйтесь на трекере!
Статус:   изменил Soldat (10 фев 2016, 19:28)
Размер:  374.48 МБ (392 668 275 байт)
Приватный:  Нет (DHT включён)
Хэш:  e524e48635adeb840936
8faf2de15a1e7edd1ff8
Здоровье:  100%
.torrent скачан:  4
Как тут качать  Правила, основные инструкции, FAQ-и




 Профиль  
 
Показать сообщения за:  Поле сортировки  
Начать новую тему Ответить на тему  [ 1 сообщение ] 


Кто сейчас на трекере

Сейчас этот форум просматривают: нет зарегистрированных пользователей и гости: 2


Вы не можете начинать темы
Вы не можете отвечать на сообщения
Вы не можете редактировать свои сообщения
Вы не можете удалять свои сообщения
Вы не можете добавлять вложения

Найти:


Правообладателям

!ВНИМАНИЕ!
Ресурс не предоставляет электронные версии произведений, а занимается лишь коллекционированием и каталогизацией ссылок, присылаемых и публикуемых на форуме нашими читателями. Если вы являетесь правообладателем какого-либо представленного материала и не желаете чтобы ссылка на него находилась в нашем каталоге, свяжитесь с нами и мы незамедлительно удалим её. Файлы для обмена на трекере предоставлены пользователями сайта, и администрация не несёт ответственности за их содержание. Просьба не заливать файлы, защищенные авторскими правами, а также файлы нелегального содержания!
cron
Вверх страницы
Вниз страницы
ppkBB3cker v.2 © 2008-2011 @ PPK