3d-tracker.ru • Просмотр темы - Охотники за привидениями (трейлер) в 3Д / Ghostbusters (trailer) 3D (2016) [1080p, Zoom Half OverUnder / Вертикальная анаморфная стереопара на весь экран]

Регистрация Имя: Пароль: Запомнить Забыли пароль?



Правила форума





Начать новую тему Ответить на тему  [ 1 сообщение ] 
Статистика раздачи
Размер: 225.1 МБ | Зарегистрирован: 06 мар 2016, 22:04 | .torrent скачан: 2
Сиды: 0 [0 байт/сек]    Личи: 6 [0 байт/сек]
Автор Сообщение
 СообщениеДобавлено: 06 мар 2016, 22:04 
В сети
Супермодератор
Аватара пользователя
Зарегистрирован: 15 апр 2014, 21:21
Торренты: 383
Раздал: 29.3 ТБ 
Скачал: 1.83 ТБ 
Ратио: 27.084
Спасибо: 2090 / 129
Сообщения: 536
Комментарии: 239
Откуда: РОССИЯ, ЦФО

Жанр: Боевик, Зарубежный фильм, Комедия, Фантастика
Продолжительность: 00:02:19
Размер: 225 Мб
Язык: Английский
Субтитры: Русские

Режиссер: Пол Фиг
В ролях: Кристен Уиг, Крис Хемсворт, Мелисса МакКарти, Сигурни Уивер,Билл Мюррей, Кейт МакКиннон, Дэн Эйкройд, Майкл Кеннет Уильямс, Энди Гарсиа, Энни Поттс
О фильме: История начнется с проблем у главных героев: они уже не могут ловить призраков так резво, как раньше. Поэтому им приходится набрать в команду молодых охотников.

Качество: Rip (1080p)
Видео: AVC / High@L4.1 / 23,976 fps / 1920x1080p / 13000 kbps
Аудио : AC3 / 2 ch / 192 kbps

Формат 3D: Zoom Half OverUnder / Вертикальная анаморфная стереопара на весь экран (16:9)
Порядок ракурсов: левый ракурс-первый
Полное имя : E:\AV\GHOSTBUSTERS.3D.2016.trailer.1080p.H-OU.mkv
Формат : Matroska
Версия формата : Version 4 / Version 2
Размер файла : 225 Мбайт
Продолжительность : 2 м. 18 с.
Общий поток : 13,6 Мбит/сек
Дата кодирования : UTC 2016-03-06 15:52:11
Программа кодирования : mkvmerge v7.1.0 ('Good Love') 64bit built on Jul 27 2014 13:06:55
Библиотека кодирования : libebml v1.3.0 + libmatroska v1.4.1
Видео
Идентификатор : 1
Формат : AVC
Формат/Информация : Advanced Video Codec
Профиль формата : High@L4.1
Параметр CABAC формата : Да
Параметр ReFrames формата : 4 кадра
Идентификатор кодека : V_MPEG4/ISO/AVC
Продолжительность : 2 м. 18 с.
Битрейт : 13,0 Мбит/сек
Ширина : 1920 пикселей
Высота : 1080 пикселей
Соотношение сторон : 16:9
Режим частоты кадров : Постоянный
Частота кадров : 23,976 кадра/сек
Цветовое пространство : YUV
Субдискретизация насыщенности : 4:2:0
Битовая глубина : 8 бит
Тип развёртки : Прогрессивная
Бит/(Пиксели*Кадры) : 0.261
Размер потока : 217 Мбайт (97%)
Заголовок : 1080p, hou
Язык : English
Default : Да
Forced : Нет
DURATION : 00:02:18.889000000
Аудио
Идентификатор : 2
Формат : AC-3
Формат/Информация : Audio Coding 3
Расширение режима : CM (complete main)
Параметр Endianness формата : Big
Идентификатор кодека : A_AC3
Продолжительность : 2 м. 18 с.
Вид битрейта : Постоянный
Битрейт : 192 Кбит/сек
Каналы : 2 канала
Расположение каналов : Front: L R
Частота : 48,0 КГц
Битовая глубина : 16 бит
Размер потока : 3,18 Мбайт (1%)
Заголовок : 2 ch, 192 kb/s
Язык : English
Default : Да
Forced : Нет

Информация о торренте
Торрент:  Зарегистрирован [06 мар 2016, 22:04] Для скачивания необходимо Зарегистрироваться!



Если Вы уже зарегистрированы, то авторизуйтесь на трекере!
Статус:  
Размер:  225.1 МБ (236 035 084 байт)
Приватный:  Нет (DHT включён)
Хэш:  61358a6bbf6c818cf077
6185fa35474eb300c796
Здоровье:  ???%
.torrent скачан:  2
Как тут качать  Правила, основные инструкции, FAQ-и



_________________


 Профиль  
 
Показать сообщения за:  Поле сортировки  
Начать новую тему Ответить на тему  [ 1 сообщение ] 


Кто сейчас на трекере

Сейчас этот форум просматривают: нет зарегистрированных пользователей и гости: 1


Вы не можете начинать темы
Вы не можете отвечать на сообщения
Вы не можете редактировать свои сообщения
Вы не можете удалять свои сообщения
Вы не можете добавлять вложения

Найти:


Правообладателям

!ВНИМАНИЕ!
Ресурс не предоставляет электронные версии произведений, а занимается лишь коллекционированием и каталогизацией ссылок, присылаемых и публикуемых на форуме нашими читателями. Если вы являетесь правообладателем какого-либо представленного материала и не желаете чтобы ссылка на него находилась в нашем каталоге, свяжитесь с нами и мы незамедлительно удалим её. Файлы для обмена на трекере предоставлены пользователями сайта, и администрация не несёт ответственности за их содержание. Просьба не заливать файлы, защищенные авторскими правами, а также файлы нелегального содержания!
cron
Вверх страницы
Вниз страницы
ppkBB3cker v.2 © 2008-2011 @ PPK