3d-tracker.ru • Просмотр темы - Варкрафт 3Д / trailer 3D (2016) [1080p, Half Side-by-Side / Горизонтальная анаморфная стереопара]

Регистрация Имя: Пароль: Запомнить Забыли пароль?



Правила форума





Начать новую тему Ответить на тему  [ 1 сообщение ] 
Статистика раздачи
Размер: 204.08 МБ | Зарегистрирован: 01 апр 2016, 14:49 | .torrent скачан: 25
Сиды: 10 [0 байт/сек]    Личи: 3 [0 байт/сек]
Автор Сообщение
 СообщениеДобавлено: 01 апр 2016, 14:49 
Не в сети
Супермодератор
Аватара пользователя
Зарегистрирован: 15 апр 2014, 21:21
Торренты: 456
Раздал: 34.53 ТБ 
Скачал: 1.83 ТБ 
Ратио: 29.937
Спасибо: 2597 / 181
Сообщения: 600
Комментарии: 269
Откуда: РОССИЯ, ЦФО

Название: Варкрафт
Оригинальное название: Warcraft
Год выхода: 2016
Страна: США
Жанр: Боевик, Приключения, Фэнтези, Трейлер
Перевод: Дублированный

Режиссер: Дункан Джонс
В ролях: Трэвис Фиммел, Роберт Казински, Пола Пэттон, Бен Фостер, Доминик Купер, Клэнси Браун, Тоби Кеббелл,Дэниэл Кадмор, Рут Негга, Бен Шнетцер
О фильме: Жители мирных земель Азерота оказались лицом к лицу с наступающей на них войной – армия грозных орков покидает свой умирающий мир, чтобы колонизировать другой, пока ещё живой и цветущий. Орки идут на Штормград, его нужно взять в первую очередь, чтобы покорились все остальные. Стены крепости всегда считались неприступными, благодаря древней магии, но выдержит ли она на этот раз. Слишком многочисленна Орда и невероятно силён её вождь, благородный герой из Клана Волка – храбрый Дуротан. Он давно ведёт борьбу за спасение своего народа от власти чернокнижников из Совета Теней. Ирония в том, что Совет теперь на его стороне и тоже входит в Орду. Однако герои Альянса, защищающие Азерот, не уступают захватчикам в мужестве и благородству. Среди них герой Первой войны Андуин Лотар, и великий маг Медив, последний Хранитель Тирисфаля, его ученик Кадгар, а также мудрые правители Штормграда: король Ллейн Ринн и его возлюбленная королева, Леди Тарья. На чьей стороне будет победа на этот раз? Альянс или Орда будут владеть Азеротом? Начните смотреть «Варкрафт» онлайн фильм в хорошем качестве, и вы увидите, как меняется этот удивительный мир. Два героя будут решать судьбу своей семьи, своего народа и своего будущего. Так начинается захватывающая сага о многоликой войне, о самопожертвовании и власти.

Качество: (1080р)
Видео: AVC, 13000 Кбит/сек, 1920x1080
Аудио: AC3, 2 ch, 256 Кбит/с
Размер: 204 Мб
Продолжительность: 00:02:06

Формат 3D: Half Side-by-Side / Горизонтальная анаморфная стереопара ("3DCombine")
Порядок ракурсов: левый-первый

Полное имя : E:\AV\Warcraft.3D.trailer.1080p.H-SBS.mkv
Формат : Matroska
Версия формата : Version 4 / Version 2
Размер файла : 204 Мбайт
Продолжительность : 2 м. 6 с.
Общий поток : 13,6 Мбит/сек
Дата кодирования : UTC 2016-04-01 07:48:27
Программа кодирования : mkvmerge v7.1.0 ('Good Love') 64bit built on Jul 27 2014 13:06:55
Библиотека кодирования : libebml v1.3.0 + libmatroska v1.4.1
Видео
Идентификатор : 1
Формат : AVC
Формат/Информация : Advanced Video Codec
Профиль формата : High@L4.1
Параметр CABAC формата : Да
Параметр ReFrames формата : 4 кадра
Идентификатор кодека : V_MPEG4/ISO/AVC
Продолжительность : 2 м. 6 с.
Битрейт : 13,0 Мбит/сек
Ширина : 1920 пикселей
Высота : 1080 пикселей
Соотношение сторон : 16:9
Режим частоты кадров : Постоянный
Частота кадров : 23,976 кадра/сек
Цветовое пространство : YUV
Субдискретизация насыщенности : 4:2:0
Битовая глубина : 8 бит
Тип развёртки : Прогрессивная
Бит/(Пиксели*Кадры) : 0.261
Размер потока : 196 Мбайт (96%)
Заголовок : 1080p, H-SBS_by.SOLdAt
Библиотека кодирования : x264 core 139
Язык : English
Default : Да
Forced : Нет
DURATION : 00:02:06.116000000
Аудио
Идентификатор : 2
Формат : AC-3
Формат/Информация : Audio Coding 3
Расширение режима : CM (complete main)
Параметр Endianness формата : Big
Идентификатор кодека : A_AC3
Продолжительность : 2 м. 6 с.
Вид битрейта : Постоянный
Битрейт : 256 Кбит/сек
Каналы : 2 канала
Расположение каналов : Front: L R
Частота : 48,0 КГц
Битовая глубина : 16 бит
Размер потока : 3,85 Мбайт (2%)
Заголовок : 2 ch, 256 kb/s
Язык : Russian
Default : Да
Forced : Нет
Информация о торренте
Торрент:  Зарегистрирован [01 апр 2016, 14:49] Для скачивания необходимо Зарегистрироваться!



Если Вы уже зарегистрированы, то авторизуйтесь на трекере!
Статус:  
Размер:  204.08 МБ (213 991 688 байт)
Приватный:  Нет (DHT включён)
Хэш:  ea42452978e3f5ffff97
c4709418d4750045dd50
Здоровье:  100%
.torrent скачан:  25
Как тут качать  Правила, основные инструкции, FAQ-и



_________________


 Профиль  
 
Показать сообщения за:  Поле сортировки  
Начать новую тему Ответить на тему  [ 1 сообщение ] 


Кто сейчас на трекере

Сейчас этот форум просматривают: нет зарегистрированных пользователей и гости: 1


Вы не можете начинать темы
Вы не можете отвечать на сообщения
Вы не можете редактировать свои сообщения
Вы не можете удалять свои сообщения
Вы не можете добавлять вложения

Найти:


Правообладателям

!ВНИМАНИЕ!
Ресурс не предоставляет электронные версии произведений, а занимается лишь коллекционированием и каталогизацией ссылок, присылаемых и публикуемых на форуме нашими читателями. Если вы являетесь правообладателем какого-либо представленного материала и не желаете чтобы ссылка на него находилась в нашем каталоге, свяжитесь с нами и мы незамедлительно удалим её. Файлы для обмена на трекере предоставлены пользователями сайта, и администрация не несёт ответственности за их содержание. Просьба не заливать файлы, защищенные авторскими правами, а также файлы нелегального содержания!
cron
Вверх страницы
Вниз страницы
ppkBB3cker v.2 © 2008-2011 @ PPK