3d-tracker.ru • Просмотр темы - Dance clips 3D (2016) [1080p, Half Side-by-Side / Горизонтальная анаморфная стереопара]

Регистрация Имя: Пароль: Запомнить Забыли пароль?



Правила форума





Начать новую тему Ответить на тему  [ 1 сообщение ] 
Статистика раздачи
Размер: 1.95 ГБ | Зарегистрирован: 14 апр 2016, 15:15 | .torrent скачан: 4
Сиды: 0 [0 байт/сек]    Личи: 11 [0 байт/сек]
Автор Сообщение
 СообщениеДобавлено: 14 апр 2016, 15:15 
Не в сети
Бывалый
Зарегистрирован: 07 июн 2014, 08:13
Торренты: 52
Раздал: 1.7 ТБ 
Скачал: 992.73 ГБ 
Ратио: 1.751
Спасибо: 216 / 476
Сообщения: 152
Комментарии: 158

5 танцевальных клипов в 3Д!

Полное имя : F:\Clips.Erotic.dance.3D.1080p.mkv
Формат : Matroska
Версия формата : Version 4 / Version 2
Размер файла : 1,95 Гбайт
Продолжительность : 25 м.
Общий поток : 10,8 Мбит/сек
Программа кодирования : mkvmerge v8.3.0
Библиотека кодирования : libebml v1.3.1 + libmatroska v1.4.2
DURATION : 00:25:45.854000000

Видео
Идентификатор : 1
Формат : AVC
Формат/Информация : Advanced Video Codec
Профиль формата : High@L4.0
Параметр CABAC формата : Да
Параметр ReFrames формата : 2 кадра
Идентификатор кодека : V_MPEG4/ISO/AVC
Продолжительность : 25 м.
Битрейт : 10,4 Мбит/сек
Ширина : 1920 пикселей
Высота : 1080 пикселей
Соотношение сторон : 16:9
Режим частоты кадров : Постоянный
Частота кадров : 24,000 кадра/сек
Цветовое пространство : YUV
Субдискретизация насыщенности : 4:2:0
Битовая глубина : 8 бит
Тип развёртки : Прогрессивная
Бит/(Пиксели*Кадры) : 0.208
Размер потока : 1,86 Гбайт (96%)
Язык : English
Default : Да
Forced : Нет

Аудио
Идентификатор : 2
Формат : AC-3
Формат/Информация : Audio Coding 3
Расширение режима : CM (complete main)
Параметр Endianness формата : Big
Идентификатор кодека : A_AC3
Продолжительность : 25 м.
Вид битрейта : Постоянный
Битрейт : 256 Кбит/сек
Каналы : 2 канала
Расположение каналов : Front: L R
Частота : 48,0 КГц
Битовая глубина : 16 бит
Размер потока : 47,2 Мбайт (2%)
Язык : English
Default : Да
Forced : Нет









Информация о торренте
Торрент:  Зарегистрирован [14 апр 2016, 15:15] Для скачивания необходимо Зарегистрироваться!



Если Вы уже зарегистрированы, то авторизуйтесь на трекере!
Статус:   изменил Soldat (14 апр 2016, 15:24)
Размер:  1.95 ГБ (2 091 305 269 байт)
Приватный:  Нет (DHT включён)
Хэш:  cf9bb1500f19d50705e5
9c1219f44e0c95c09c03
Здоровье:  ???%
.torrent скачан:  4
Как тут качать  Правила, основные инструкции, FAQ-и




 Профиль  
 
Показать сообщения за:  Поле сортировки  
Начать новую тему Ответить на тему  [ 1 сообщение ] 


Кто сейчас на трекере

Сейчас этот форум просматривают: нет зарегистрированных пользователей и гости: 1


Вы не можете начинать темы
Вы не можете отвечать на сообщения
Вы не можете редактировать свои сообщения
Вы не можете удалять свои сообщения
Вы не можете добавлять вложения

Найти:


Правообладателям

!ВНИМАНИЕ!
Ресурс не предоставляет электронные версии произведений, а занимается лишь коллекционированием и каталогизацией ссылок, присылаемых и публикуемых на форуме нашими читателями. Если вы являетесь правообладателем какого-либо представленного материала и не желаете чтобы ссылка на него находилась в нашем каталоге, свяжитесь с нами и мы незамедлительно удалим её. Файлы для обмена на трекере предоставлены пользователями сайта, и администрация не несёт ответственности за их содержание. Просьба не заливать файлы, защищенные авторскими правами, а также файлы нелегального содержания!
cron
Вверх страницы
Вниз страницы
ppkBB3cker v.2 © 2008-2011 @ PPK