3d-tracker.ru • Просмотр темы - Kraftwerk: The Catalogue / 3D (2012-2016) [BDRip by Unter59, 1080p, Half OverUnder / Вертикальная анаморфная стереопара]

Регистрация Имя: Пароль: Запомнить Забыли пароль?



Правила форума





Начать новую тему Ответить на тему  [ 1 сообщение ] 
Статистика раздачи
Размер: 5.32 ГБ | Зарегистрирован: 30 май 2017, 20:30 | .torrent скачан: 8
Сиды: 3 [0 байт/сек]    Личи: 1 [0 байт/сек]
Автор Сообщение
 СообщениеДобавлено: 30 май 2017, 20:30 
Не в сети
Супермодератор
Аватара пользователя
Зарегистрирован: 15 апр 2014, 21:21
Торренты: 499
Раздал: 35.28 ТБ 
Скачал: 1.83 ТБ 
Ратио: 30.347
Спасибо: 2878 / 199
Сообщения: 661
Комментарии: 305
Откуда: РОССИЯ, ЦФО

Название: Kraftwerk: 3-D The Catalogue
Год выхода: 2012-2016
Жанр: Electronic, Synth Pop, Avant-Garde, Experimental Electronic, Kraut Rock, Electro, Club/Dance
Выпущено: Германия | Parlophone
Продолжительность: 01:17:37

Исполнитель: Ralf Hütter – lead vocals, vocoder, synthesizers, keyboards, organ, drums and percussion, bass guitar, guitar; Fritz Hilpert – electronic percussion; Henning Schmitz – electronic percussion, live keyboards; Falk Grieffenhagen – live video technician
Описание: «Kraftwerk 3-D The Catalogue» - это 3-D аудио/видео собрание выступлений группы в ведущих мультимидийных музеях мира. В него включено 8 классических альбомов Kraftwerk с соблюдением хронологии: Autobahn (1974), Radio-Activity (1975), Trans Europe Express (1977), The Man-Machine (1978), Computer World (1981), Techno Pop (1986), The Mix (1991) и Tour De France (2003).
Записи были сделаны в период с 2012 по 2016 год, во время мирового турне группы. В список локаций съемок включены такие места, как MoMA (Нью Йорк), The Tate Modern Turbine Hall (Лондон), Akasaka Blitz (Токио), Opera House (Сидней), Norske Opera (Осло), Paradiso (Амстердам), Fondation Louis Vuitton (Париж) and Neue National Galerie (Берлин).

Выход Kraftwerk 3-D The Catalouge приурочен к старту первого с 2013 года тура Kraftwerk, который начинается в июне 2017.
1. Autobahn
2. Geiger Counter
3. Radioactivity
4. Trans Europe Express
5. Metal On Metal
6. Abzug
7. The Man Machine
8. Numbers
9. Computer World
10. Boing Boom Tschak
11. Techno Pop
12. Music Non Stop
13. The Robots
14. Tour De France
15. Prologue
16. Etape 1
17. Chrono
18. Etape 2

Качество: BDRip (1080p)
Видео: AVC, 1920x1080, 23,976 fps, 8850 kbp/s
Звук:
Аудио #01: 48 kHz, AC3, 5.1, 640 Kbps
Аудио #02: 48 kHz, AC3, 2.0, 128 Kbps
Размер: 5,32 Гб
Субтитры: нет

Формат 3D: Half OverUnder / Вертикальная анаморфная стереопара (16:9)
Порядок ракурсов: верхний ракурс - первый.
Полное имя : E:\AV\KRAFTWERK.3D.mkv
Формат : Matroska
Версия формата : Version 4 / Version 2
Размер файла : 5,32 Гбайт
Название фильма : KRAFTWERK_3D.BlurayRip
Дата кодирования : UTC 2017-05-30 11:42:54
Программа кодирования : mkvmerge v7.1.0 ('Good Love') 64bit
Библиотека кодирования : libebml v1.3.0 + libmatroska v1.4.1
DURATION : 01:17:36.768000000

Видео
Идентификатор : 1
Формат : AVC
Формат/Информация : Advanced Video Codec
Профиль формата : High@L4.0
Параметр CABAC формата : Да
Параметр ReFrames формата : 2 кадра
Идентификатор кодека : V_MPEG4/ISO/AVC
Битрейт : 8856 Кбит/сек
Ширина : 1920 пикселей
Высота : 1080 пикселей
Соотношение сторон : 16:9
Режим частоты кадров : Постоянный
Частота кадров : 23,976 кадра/сек
Цветовое пространство : YUV
Субдискретизация насыщенности : 4:2:0
Битовая глубина : 8 бит
Тип развёртки : Прогрессивная
Бит/(Пиксели*Кадры) : 0.178
Размер потока : 4,80 Гбайт (90%)
Default : Да
Forced : Нет

Аудио #1
Идентификатор : 2
Формат : AC-3
Формат/Информация : Audio Coding 3
Расширение режима : CM (complete main)
Параметр Endianness формата : Big
Идентификатор кодека : A_AC3
Вид битрейта : Постоянный
Битрейт : 128 Кбит/сек
Каналы : 2 канала
Расположение каналов : Front: L R
Частота : 48,0 КГц
Битовая глубина : 16 бит
Размер потока : 71,1 Мбайт (1%)
Язык : German
Default : Нет
Forced : Нет

Аудио #2
Идентификатор : 3
Формат : AC-3
Формат/Информация : Audio Coding 3
Расширение режима : CM (complete main)
Параметр Endianness формата : Big
Идентификатор кодека : A_AC3
Продолжительность : 1 ч. 17 м.
Вид битрейта : Постоянный
Битрейт : 640 Кбит/сек
Каналы : 6 каналов
Расположение каналов : Front: L C R, Side: L R, LFE
Частота : 48,0 КГц
Битовая глубина : 16 бит
Размер потока : 355 Мбайт (7%)
Язык : German
Default : Да
Forced : Нет

Информация о торренте
Торрент:  Зарегистрирован [30 май 2017, 20:30] Для скачивания необходимо Зарегистрироваться!



Если Вы уже зарегистрированы, то авторизуйтесь на трекере!
Статус:  
Размер:  5.32 ГБ (5 716 105 955 байт)
Приватный:  Нет (DHT включён)
Хэш:  f87bcfbd4c3204b9e89a
6cebd521f3ad5bbac852
Здоровье:  100%
.torrent скачан:  8
Как тут качать  Правила, основные инструкции, FAQ-и



_________________


 Профиль  
 
Показать сообщения за:  Поле сортировки  
Начать новую тему Ответить на тему  [ 1 сообщение ] 


Кто сейчас на трекере

Сейчас этот форум просматривают: нет зарегистрированных пользователей и гости: 1


Вы не можете начинать темы
Вы не можете отвечать на сообщения
Вы не можете редактировать свои сообщения
Вы не можете удалять свои сообщения
Вы не можете добавлять вложения

Найти:


Правообладателям

!ВНИМАНИЕ!
Ресурс не предоставляет электронные версии произведений, а занимается лишь коллекционированием и каталогизацией ссылок, присылаемых и публикуемых на форуме нашими читателями. Если вы являетесь правообладателем какого-либо представленного материала и не желаете чтобы ссылка на него находилась в нашем каталоге, свяжитесь с нами и мы незамедлительно удалим её. Файлы для обмена на трекере предоставлены пользователями сайта, и администрация не несёт ответственности за их содержание. Просьба не заливать файлы, защищенные авторскими правами, а также файлы нелегального содержания!
cron
Вверх страницы
Вниз страницы
ppkBB3cker v.2 © 2008-2011 @ PPK