3d-tracker.ru • Просмотр темы - Мисс Сэди Томпсон / Miss Sadie Thompson 3D (1953) [BDRip, 1080p, HSBS / Горизонтальная анаморфная стереопара]

Регистрация Имя: Пароль: Запомнить Забыли пароль?



Правила форума





Начать новую тему Ответить на тему  [ Сообщений: 4 ] 
Статистика раздачи
Размер: 6.63 ГБ | Зарегистрирован: 25 ноя 2016, 21:52 | .torrent скачан: 3
Сиды: 1 [0 байт/сек]    Личи: 1 [0 байт/сек]
Автор Сообщение
 СообщениеДобавлено: 25 ноя 2016, 21:52 
Не в сети
Супермодератор
Аватара пользователя
Зарегистрирован: 15 апр 2014, 21:21
Торренты: 438
Раздал: 33.35 ТБ 
Скачал: 1.83 ТБ 
Ратио: 29.294
Спасибо: 2469 / 165
Сообщения: 580
Комментарии: 259
Откуда: РОССИЯ, ЦФО

Название: Мисс Сэди Томпсон
Оригинальное название: Miss Sadie Thompson
Год выпуска: 1953
Жанр: Мюзикл, драма, мелодрама
Выпущено: США, Columbia Pictures Corporation, The Beckworth Corporation

Режиссер: Кёртис Бернхардт
В ролях: Рита Хэйворт, Хосе Феррер, Альдо Рэй, Расселл Коллинз, Гарри Беллэвер, Вилтон Графф, Пегги Конверс, Генри Слейт
О фильме: Жизнь уныла для команды морских пехотинцев, размещенных на сонном Тихоокеанском острове, но их рутинная служба переворачивается вверх тормашками с прибытием на островок Сэди Томпсон, девчонки, которая не прочь развлечься! Милашка остановилась на Гавайях на недельку в ожидании судна, которое возьмет ее на свой борт в качестве певицы ночного клуба корабля.

Размер: 6.63 ГБ
Продолжительность: 01:26:36
Перевод: Профессиональный многоголосый

Качество: BDRip (1080р) by SOLdAt
Видео: AVC, 10600 Кбит/с, 23,976 fps, 1920х1080
Аудио: Русский AC3, 2 ch, 192 Кбит/с

Формат 3D: Half SideBySide / Горизонтальная анаморфная стереопара
Порядок ракурсов: Левый-первый
Полное имя : E:\AV\Miss.Sadie.Thompson.1953.3D.1080p.BluRay.x264.HSBS.mkv
Формат : Matroska
Версия формата : Version 4 / Version 2
Размер файла : 6,63 Гбайт
Продолжительность : 1 ч. 26 м.
Общий поток : 11,0 Мбит/сек
Название фильма : from SOLdAt
Дата кодирования : UTC 2016-11-25
Программа кодирования : mkvmerge v7.1.0 ('Good Love') 64bit
Библиотека кодирования : libebml v1.3.0 + libmatroska v1.4.1
DURATION : 01:26:35.631000000

Видео
Идентификатор : 1
Формат : AVC
Формат/Информация : Advanced Video Codec
Профиль формата : High@L4.0
Параметр CABAC формата : Да
Параметр ReFrames формата : 2 кадра
Параметр GOP формата : M=3, N=24
Идентификатор кодека : V_MPEG4/ISO/AVC
Продолжительность : 1 ч. 26 м.
Битрейт : 10,6 Мбит/сек
Ширина : 1920 пикселей
Высота : 1080 пикселей
Соотношение сторон : 16:9
Режим частоты кадров : Постоянный
Частота кадров : 23,976 кадра/сек
Цветовое пространство : YUV
Субдискретизация насыщенности : 4:2:0
Битовая глубина : 8 бит
Тип развёртки : Прогрессивная
Бит/(Пиксели*Кадры) : 0.212
Размер потока : 6,38 Гбайт (96%)
Заголовок : 1080p, HSBS
Язык : English
Default : Да
Forced : Нет

Аудио
Идентификатор : 2
Формат : AC-3
Формат/Информация : Audio Coding 3
Расширение режима : CM (complete main)
Параметр Endianness формата : Big
Идентификатор кодека : A_AC3
Продолжительность : 1 ч. 26 м.
Вид битрейта : Постоянный
Битрейт : 192 Кбит/сек
Каналы : 2 канала
Расположение каналов : Front: L R
Частота : 48,0 КГц
Битовая глубина : 16 бит
Размер потока : 119 Мбайт (2%)
Заголовок : 2 ch, 192 kb/s
Язык : Russian
Default : Да
Forced : Нет

Информация о торренте
Торрент:  Зарегистрирован [25 ноя 2016, 21:52] Для скачивания необходимо Зарегистрироваться!



Если Вы уже зарегистрированы, то авторизуйтесь на трекере!
Статус:  
Размер:  6.63 ГБ (7 119 289 865 байт)
Приватный:  Нет (DHT включён)
Хэш:  490ea993718a9cba80ae
6a05f1ee2d5541eb0e5a
Здоровье:  100%
.torrent скачан:  3
Как тут качать  Правила, основные инструкции, FAQ-и



_________________


 Профиль  
 
 СообщениеДобавлено: 25 ноя 2016, 21:54 
Не в сети
Супермодератор
Аватара пользователя
Зарегистрирован: 15 апр 2014, 21:21
Торренты: 438
Раздал: 33.35 ТБ 
Скачал: 1.83 ТБ 
Ратио: 29.294
Спасибо: 2469 / 165
Сообщения: 580
Комментарии: 259
Откуда: РОССИЯ, ЦФО
Намаялся с синхронизацией видео ряда с ауди дорогой!(2 дня)

_________________


 Профиль  
 
 СообщениеДобавлено: 26 ноя 2016, 10:18 
Не в сети
Модератор
Аватара пользователя
Зарегистрирован: 30 авг 2016, 14:54
Торренты: 100
Раздал: 281.29 ГБ 
Скачал: 16.3 ГБ 
Ратио: 17.254
Спасибо: 507 / 296
Сообщения: 103
Комментарии: 11
:co_ol: :-|-: :cool_cool:

_________________


 Профиль  
 
 СообщениеДобавлено: 26 ноя 2016, 10:19 
Не в сети
Бывалый
Зарегистрирован: 15 май 2014, 15:05
Торренты: 37
Раздал: 2.93 ТБ 
Скачал: 1.24 ТБ 
Ратио: 2.362
Спасибо: 212 / 625
Сообщения: 126
Комментарии: 123
:bra_vo: В коллекцию!


 Профиль  
 
Показать сообщения за:  Поле сортировки  
Начать новую тему Ответить на тему  [ Сообщений: 4 ] 


Кто сейчас на трекере

Сейчас этот форум просматривают: нет зарегистрированных пользователей и гости: 1


Вы не можете начинать темы
Вы не можете отвечать на сообщения
Вы не можете редактировать свои сообщения
Вы не можете удалять свои сообщения
Вы не можете добавлять вложения

Найти:


Правообладателям

!ВНИМАНИЕ!
Ресурс не предоставляет электронные версии произведений, а занимается лишь коллекционированием и каталогизацией ссылок, присылаемых и публикуемых на форуме нашими читателями. Если вы являетесь правообладателем какого-либо представленного материала и не желаете чтобы ссылка на него находилась в нашем каталоге, свяжитесь с нами и мы незамедлительно удалим её. Файлы для обмена на трекере предоставлены пользователями сайта, и администрация не несёт ответственности за их содержание. Просьба не заливать файлы, защищенные авторскими правами, а также файлы нелегального содержания!
cron
Вверх страницы
Вниз страницы
ppkBB3cker v.2 © 2008-2011 @ PPK