3d-tracker.ru • Просмотр темы - Кошки в твоей жизни в 3Д / Cats In Your Life. Neco Ban 3D (2011) [BDRip, 1080p] Half Side-by-Side / Горизонтальная анаморфная стереопара

Регистрация Имя: Пароль: Запомнить Забыли пароль?



Правила форума





Начать новую тему Ответить на тему  [ Сообщений: 2 ] 
Статистика раздачи
Размер: 8.34 ГБ | Зарегистрирован: 05 июл 2014, 15:09 | .torrent скачан: 86
Сиды: 129 [0 байт/сек]    Личи: 47 [0 байт/сек]
Автор Сообщение
 СообщениеДобавлено: 05 июл 2014, 15:14 
Не в сети
гуру
Аватара пользователя
Зарегистрирован: 17 дек 2012, 15:37
Торренты: 912
Раздал: 299.4 ТБ 
Скачал: 7.77 ТБ 
Ратио: 38.527
Спасибо: 4785 / 0
Сообщения: 1215
Комментарии: 587
Откуда: Донецк - это Украина!

Кошки в твоей жизни в 3Д / Cats In Your Life. Neco Ban 3D


Год: 2011
Страна: Япония
Жанр: Драма
Перевод: Русский Одноголосый закадровый D.I.M + Японский (Оригинал)
Режиссёр: Ken Arima

О фильме: Старик Исао Немото, после 40 лет работы вышел на пенсию. Когда он был молод, он уделял себя полностью своей работе, он пренебрегал всем вокруг себя, включая свою семью. Теперь он ушел в отставку. У него нету ни увлечений, ни интересов, ни друзей, он мог только сидеть дома в полнои одиночестве, ничего не делая. Однажды, когда он сидел на веранде, он замечает, что кошки свободно приходят и уходят к его дому. Его настроение меняется и он начинает наблюдать за кошками, как они бегают и играют в его саду и его доме. Жизнь становится интересней.

The old man Isao Nemoto , after 40 years of work just retired . When he was young , he just focused on his work, he ignored everything around him , including his family. Now he has retired, he misses when he has no hobbies , no hobbies , no interests , no friends, and he could only sit at home alone doing nothing. Once when he was sitting on the porch , he noticed that the cats come and go freely in their home. His mood changed and he begins to use cats as they run and play in his garden and his house . Life becomes interesting , and we share in their daily happiness in this program.

Качество: BDrip
Контейнер: MKV
Формат 3D: Half SideBySide / Горизонтальная анаморфная стереопара
Порядок ракурсов: левый ракурс первый
Видео кодек: x264
Аудио кодек: AC3
ВИДЕО: AVC, 1920x1080, 23.976 fps, 17.5 Mbps
АУДИО 1: Русский, MP3, 2ch, 128kbps, 48.0 KHz
АУДИО 2: Японский, АС3, 2ch, 448kbps, 48.0 KHz

This movie has kittens in 3D: Need I say more?

Neco-Ban Cats In Your Life is a short and quiet story about a grumpy old man, his sleepy granddaughter, and the many, many cats that show up in their country home. Ibu Masato frowns away as a proud, retired man with a bad back and a chip on his shoulder about his wife and daughter leaving him at home. He barely speaks out loud, but through narrative voiceover we hear his obsession with time, his grievances with being bored and alone, his concern for appearances, and his crabby curiosity about all the cats running amuck in the house. Through a small, ridiculous turn of events, he ends up stranded on his roof with no way down. The myriad helpless facial expressions the veteran actor rolls out during his attempts to get back down are absolutely hilarious. Who knew an old man on a roof could be so funny?

The unexpectedly entertaining non-adventures of the old man are just a bonus though. More importantly, the entire film is sprinkled with many scenes of cats scampering around. Though a simple production, Neco-Ban makes fairly good use of its 3D effects to enhance the feline cuteness factor. Cats walk across your TV screen, pop out of watering cans, roll around in flour, get stuck in underwear, and work their hardest to become your screensaver. One particularly impressive shot through a fish tank sees cats playing in the background, while bright orange goldfish swim around the screen.

Clocking in at 65 minutes, Neco-Ban is nothing more than a diversion but it's a mighty pleasant one if you want some cute Cats in Your Life.

Ковры, паласы, напольные покрытия
онлайн игра с выводом денег

Format                           : Matroska
File size                        : 8.34 GiB
Duration                         : 1h 4mn
Overall bit rate                 : 18.5 Mbps
Movie name                       : Neco.Ban.3D
Encoded date                     : UTC 2014-06-26 09:31:01
Writing application              : mkvmerge v4.0.0 ('The Stars were mine') сборка от Jun  6 2010 16:18:42
Writing library                  : libebml v1.0.0 + libmatroska v1.0.0


Video
ID                               : 1
Format                           : AVC
Format/Info                      : Advanced Video Codec
Format profile                   : High@L4.1
Format settings, CABAC           : Yes
Format settings, ReFrames        : 4 frames
Muxing mode                      : Container profile=Unknown@4.1
Codec ID                         : V_MPEG4/ISO/AVC
Duration                         : 1h 4mn
Bit rate                         : 17.5 Mbps
Width                            : 1 920 pixels
Height                           : 1 080 pixels
Display aspect ratio             : 16:9
Frame rate                       : 23.976 fps
Standard                         : NTSC
Color space                      : YUV
Chroma subsampling               : 4:2:0
Bit depth                        : 8 bits
Scan type                        : Progressive
Bits/(Pixel*Frame)               : 0.353
Stream size                      : 7.91 GiB (95%)
Color primaries                  : BT.709-5, BT.1361, IEC 61966-2-4, SMPTE RP177
Transfer characteristics         : BT.709-5, BT.1361
Matrix coefficients              : BT.709-5, BT.1361, IEC 61966-2-4 709, SMPTE RP177


Audio #1
ID                               : 2
Format                           : MPEG Audio
Format version                   : Version 1
Format profile                   : Layer 3
Mode                             : Joint stereo
Mode extension                   : MS Stereo
Codec ID                         : A_MPEG/L3
Codec ID/Hint                    : MP3
Duration                         : 1h 4mn
Bit rate mode                    : Constant
Bit rate                         : 128 Kbps
Channel(s)                       : 2 channels
Sampling rate                    : 48.0 KHz
Video delay                      : 1s 0ms
Stream size                      : 59.2 MiB (1%)
Language                         : Russian


Audio #2
ID                               : 3
Format                           : AC-3
Format/Info                      : Audio Coding 3
Mode extension                   : CM (complete main)
Codec ID                         : A_AC3
Duration                         : 1h 4mn
Bit rate mode                    : Constant
Bit rate                         : 448 Kbps
Channel(s)                       : 2 channels
Channel positions                : Front: L R
Sampling rate                    : 48.0 KHz
Stream size                      : 207 MiB (2%)
Language                         : Japanese
голые знаменитости- и зарубежные.
Информация о торренте
Торрент:  Зарегистрирован [05 июл 2014, 15:09] Для скачивания необходимо Зарегистрироваться!



Если Вы уже зарегистрированы, то авторизуйтесь на трекере!
Статус:  
Размер:  8.34 ГБ (8 955 898 179 байт)
Приватный:  Нет (DHT включён)
Хэш:  162efcf72a4682ce6a9e
c2dec61d9deb56c4bbf0
Здоровье:  100%
.torrent скачан:  86
Как тут качать  Правила, основные инструкции, FAQ-и




 Профиль  
 
 СообщениеДобавлено: 06 июл 2014, 19:32 
Не в сети
пользователь
Аватара пользователя
Зарегистрирован: 04 мар 2014, 19:29
Торренты: 0
Раздал: 221.64 ГБ 
Скачал: 259.95 ГБ 
Ратио: 0.853
Спасибо: 0 / 0
Сообщения: 32
Комментарии: 40
Откуда: Донецк, Ukr
Очень положительный фильм о том, как важно улыбаться и проявлять внимание, как к близким, так и к животным, будь то котята, щенки, жеребята, козлята, пигмеи и т.п.
:co_ol:
Есть несколько моментов откровенных артефактов, но на фоне самого фильма они не критичны.

_________________
Елегантний LG 3D-Телевізор З Можливостями Smart TV 47LM670T


 Профиль  
 
Показать сообщения за:  Поле сортировки  
Начать новую тему Ответить на тему  [ Сообщений: 2 ] 


Кто сейчас на трекере

Сейчас этот форум просматривают: нет зарегистрированных пользователей и гости: 1


Вы не можете начинать темы
Вы не можете отвечать на сообщения
Вы не можете редактировать свои сообщения
Вы не можете удалять свои сообщения
Вы не можете добавлять вложения

Найти:


Правообладателям

!ВНИМАНИЕ!
Ресурс не предоставляет электронные версии произведений, а занимается лишь коллекционированием и каталогизацией ссылок, присылаемых и публикуемых на форуме нашими читателями. Если вы являетесь правообладателем какого-либо представленного материала и не желаете чтобы ссылка на него находилась в нашем каталоге, свяжитесь с нами и мы незамедлительно удалим её. Файлы для обмена на трекере предоставлены пользователями сайта, и администрация не несёт ответственности за их содержание. Просьба не заливать файлы, защищенные авторскими правами, а также файлы нелегального содержания!
cron
Вверх страницы
Вниз страницы
ppkBB3cker v.2 © 2008-2011 @ PPK