3d-tracker.ru • Просмотр темы - Мистер Гоу в 3Д / Mr. Go 3D (2013) [BDrip, 1080p] Half OverUnder / Вертикальная анаморфная стереопара

Регистрация Имя: Пароль: Запомнить Забыли пароль?



Правила форума





Начать новую тему Ответить на тему  [ 1 сообщение ] 
Статистика раздачи
Размер: 15.7 ГБ | Зарегистрирован: 25 июл 2014, 17:10 | .torrent скачан: 6
Сиды: 0 [0 байт/сек]    Личи: 4 [0 байт/сек]
Автор Сообщение
 СообщениеДобавлено: 25 июл 2014, 17:10 
Не в сети
гуру
Аватара пользователя
Зарегистрирован: 17 дек 2012, 15:37
Торренты: 912
Раздал: 299.4 ТБ 
Скачал: 7.77 ТБ 
Ратио: 38.527
Спасибо: 4785 / 0
Сообщения: 1215
Комментарии: 587
Откуда: Донецк - это Украина!

Мистер Гоу в 3Д / Mr. Go 3D
«World's first gorilla pinch hitter and his 15-year old trainer begin on their miraculous run in the Korean Baseball League»


Год выпуска: 2013
Жанр: Драма, Комедия

Описание фильма:
15-летняя Вэйвэй остается одна со своей гориллой Линг Линг, после того как ее дедушка скончался в Китае. У ее дедушки была своя цирковая труппа. Благодаря любви деда к бейсболу, Линг Линг был обучен этой игре…

Режиссер: Ким Ён-хва
Актеры: Сон Дон Иль, Цзяо Сюй, Ким Хи Вон, Ким Кан У, Дзё Одагири, Чон Ин Ги, Jae-yun Jo, Ким Ын Су, Heung-rae Kim, Jung-tae Kim

Продолжительность: 02:12:54
Качество видео: BDRip
Перевод: Одноголосый закадровый (PashaUP)



Дата мировой премьеры: 17 июля 2013

Видеокодек: MPEG-4 AVC/H.264
Битрейт видео: ~15,5 Мбит/сек
Размер кадра: 1920x1080
Аудио 1: AC3 5.1, 448 kbps [Русский]
Аудио 2: AC3 5.1, 640 kbps [Корейский]

Общее
Уникальный идентификатор : 229601341529972747818655300383153060515 (0xACBB9C21E89FC51AA1FDF3936D6BFAA3)
Полное имя : F:\my films\MR_GO_3D.mkv
Формат : Matroska
Версия формата : Version 2
Размер файла : 15,7 Гбайт
Продолжительность : 2 ч. 12 м.
Общий поток : 16,9 Мбит/сек
Название фильма : MR_GO_3D_Half_O/U
Дата кодирования : UTC 2014-07-25 10:32:18
Программа кодирования : mkvmerge v5.3.0 ('I could have danced') built on Feb 9 2012 10:38:07
Библиотека кодирования : libebml v1.2.3 + libmatroska v1.3.0

Видео
Идентификатор : 1
Формат : AVC
Формат/Информация : Advanced Video Codec
Профиль формата : [url=mailto:High@L4.1]High@L4.1[/url]
Параметр CABAC формата : Да
Параметр ReFrames формата : 4 кадра
Идентификатор кодека : V_MPEG4/ISO/AVC
Продолжительность : 2 ч. 12 м.
Битрейт : 15,5 Мбит/сек
Ширина : 1920 пикселей
Высота : 1080 пикселей
Соотношение сторон : 16:9
Режим частоты кадров : Постоянный
Частота кадров : 23,976 кадра/сек
Цветовое пространство : YUV
Субдискретизация насыщенности : 4:2:0
Битовая глубина : 8 бит
Тип развёртки : Прогрессивная
Бит/(Пиксели*Кадры) : 0.312
Размер потока : 14,4 Гбайт (92%)
Заголовок : rip by I/N
Библиотека кодирования : x264 core 128 r2216M 198a7ea
Настройки программы : cabac=1 / ref=4 / deblock=1:-3:-3 / analyse=0x3:0x133 / me=umh / subme=10 / psy=1 / psy_rd=1.00:0.15 / mixed_ref=1 / me_range=32 / chroma_me=1 / trellis=2 / 8x8dct=1 / cqm=0 / deadzone=21,11 / fast_pskip=1 / chroma_qp_offset=-3 / threads=8 / lookahead_threads=1 / sliced_threads=0 / nr=0 / decimate=1 / interlaced=0 / bluray_compat=0 / constrained_intra=0 / bframes=6 / b_pyramid=2 / b_adapt=2 / b_bias=0 / direct=3 / weightb=1 / open_gop=0 / weightp=2 / keyint=230 / keyint_min=23 / scenecut=40 / intra_refresh=0 / rc_lookahead=60 / rc=crf / mbtree=1 / crf=17.0 / qcomp=0.60 / qpmin=0 / qpmax=69 / qpstep=4 / vbv_maxrate=40000 / vbv_bufsize=30000 / crf_max=30.0 / nal_hrd=none / ip_ratio=1.40 / aq=1:1.00
Default : Да
Forced : Нет

Аудио #1
Идентификатор : 2
Формат : AC-3
Формат/Информация : Audio Coding 3
Расширение режима : CM (complete main)
Параметр Endianness формата : Big
Идентификатор кодека : A_AC3
Продолжительность : 2 ч. 12 м.
Вид битрейта : Постоянный
Битрейт : 448 Кбит/сек
Каналы : 6 каналов
Расположение каналов : Front: L C R, Side: L R, LFE
Частота : 48,0 КГц
Битовая глубина : 16 бит
Метод сжатия : С потерями
Размер потока : 426 Мбайт (3%)
Заголовок : VO - PashaUP
Язык : Russian
Default : Да
Forced : Нет

Аудио #2
Идентификатор : 3
Формат : AC-3
Формат/Информация : Audio Coding 3
Расширение режима : CM (complete main)
Параметр Endianness формата : Big
Идентификатор кодека : A_AC3
Продолжительность : 2 ч. 12 м.
Вид битрейта : Постоянный
Битрейт : 640 Кбит/сек
Каналы : 6 каналов
Расположение каналов : Front: L C R, Side: L R, LFE
Частота : 48,0 КГц
Битовая глубина : 16 бит
Метод сжатия : С потерями
Размер потока : 608 Мбайт (4%)
Заголовок : Original
Язык : Korean
Default : Нет
Forced : Нет

Меню
00:00:00.000 : en:(01)00:00:00:000
00:12:41.886 : en:(02)00:12:41:886
00:21:34.501 : en:(03)00:21:34:501
00:33:09.320 : en:(04)00:33:09:320
00:45:42.156 : en:(05)00:45:42:156
00:55:38.585 : en:(06)00:55:38:585
01:03:49.867 : en:(07)01:03:49:867
01:17:13.420 : en:(08)01:17:13:420
01:30:14.492 : en:(09)01:30:14:492
01:39:53.821 : en:(10)01:39:53:821
01:50:35.920 : en:(11)01:50:35:920
02:01:59.270 : en:(12)02:01:59:270

Информация о торренте
Торрент:  Зарегистрирован [25 июл 2014, 17:10] Для скачивания необходимо Зарегистрироваться!



Если Вы уже зарегистрированы, то авторизуйтесь на трекере!
Статус:  
Размер:  15.7 ГБ (16 860 829 366 байт)
Приватный:  Нет (DHT включён)
Хэш:  55eeeae73dcc28969662
3bb99f60ec8f9944633d
Здоровье:  ???%
.torrent скачан:  6
Как тут качать  Правила, основные инструкции, FAQ-и




 Профиль  
 
Показать сообщения за:  Поле сортировки  
Начать новую тему Ответить на тему  [ 1 сообщение ] 


Кто сейчас на трекере

Сейчас этот форум просматривают: нет зарегистрированных пользователей и гости: 1


Вы не можете начинать темы
Вы не можете отвечать на сообщения
Вы не можете редактировать свои сообщения
Вы не можете удалять свои сообщения
Вы не можете добавлять вложения

Найти:


Правообладателям

!ВНИМАНИЕ!
Ресурс не предоставляет электронные версии произведений, а занимается лишь коллекционированием и каталогизацией ссылок, присылаемых и публикуемых на форуме нашими читателями. Если вы являетесь правообладателем какого-либо представленного материала и не желаете чтобы ссылка на него находилась в нашем каталоге, свяжитесь с нами и мы незамедлительно удалим её. Файлы для обмена на трекере предоставлены пользователями сайта, и администрация не несёт ответственности за их содержание. Просьба не заливать файлы, защищенные авторскими правами, а также файлы нелегального содержания!
cron
Вверх страницы
Вниз страницы
ppkBB3cker v.2 © 2008-2011 @ PPK