3d-tracker.ru • Просмотр темы - Мистер Гоу в 3Д / Mr. Go 3D / Mi-seu-teo Go 3D (2013) [BDrip, 1080p] Half SideBySide / Горизонтальная анаморфная стереопара

Регистрация Имя: Пароль: Запомнить Забыли пароль?



Правила форума





Начать новую тему Ответить на тему  [ 1 сообщение ] 
Статистика раздачи
Размер: 13.03 ГБ | Зарегистрирован: 29 июл 2014, 11:30 | .torrent скачан: 4
Сиды: 3 [0 байт/сек]    Личи: 3 [0 байт/сек]
Автор Сообщение
 СообщениеДобавлено: 29 июл 2014, 11:34 
Не в сети
гуру
Аватара пользователя
Зарегистрирован: 17 дек 2012, 15:37
Торренты: 912
Раздал: 299.4 ТБ 
Скачал: 7.77 ТБ 
Ратио: 38.527
Спасибо: 4785 / 0
Сообщения: 1215
Комментарии: 587
Откуда: Донецк - это Украина!

Мистер Гоу в 3Д / Mr. Go 3D / Mi-seu-teo Go 3D
«World's first gorilla pinch hitter and his 15-year old trainer begin on their miraculous run in the Korean Baseball League»


Год выпуска: 2013
Жанр: Драма, Комедия

Описание фильма: 15-летняя Вэйвэй остается одна со своей гориллой Линг Линг, после того как ее дедушка скончался в Китае. У ее дедушки была своя цирковая труппа. Благодаря любви деда к бейсболу, Линг Линг был обучен этой игре…

Режиссер: Ким Ён-хва
Актеры: Сон Дон Иль, Цзяо Сюй, Ким Хи Вон, Ким Кан У, Дзё Одагири, Чон Ин Ги, Jae-yun Jo, Ким Ын Су, Heung-rae Kim, Jung-tae Kim

Продолжительность: 02:12:55
Качество видео: BDRip
Перевод: Одноголосый закадровый (PashaUP)



Если Вы хотите усовершенствовать Ваш автомобиль AUDI A5, то Вы можете увеличить мощность двигателя и крутящий момент своего авто путём проведения чип тюнинга. Это простая и доступная процедура, при которой не снижается срок службы двигателя и система безопасности авто работает исправно и активно. Провести тюнинг Вы можете в Москве и Санкт-Петербурге в установочном центре Audi-Rus. Детали Вы можете узнать на сайте http://audi-rus.ru/a5-8t/149/498-detail.





Дата мировой премьеры: 17 июля 2013

Видеокодек: MPEG-4 AVC/H.264
Битрейт видео: ~13 Мбит/сек
Размер кадра: 1920x1080
Аудио 1: AC3, 6 каналов, 48,0 КГц, 448 Кбит/сек, 16 бит [Русский - Любительский одноголосый ''PashaUP'']
Аудио 2: AC3, 6 каналов, 48,0 КГц, 640 Кбит/сек, 16 бит [Корейский - Оригинал]

Общее
Уникальный идентификатор : 183456745415481921877498104688489055962 (0x8A047BE41E233011B49DDC11728CC6DA)
Полное имя : Mr.Go.3D.2013.H-SBS.mkv
Формат : Matroska
Версия формата : Version 2
Размер файла : 13,0 Гбайт
Продолжительность : 2 ч. 12 м.
Общий поток : 14,0 Мбит/сек
Дата кодирования : UTC 2014-07-23 22:46:05
Программа кодирования : mkvmerge v4.0.0 ('The Stars were mine') сборка от Jun 6 2010 16:18:42
Библиотека кодирования : libebml v1.0.0 + libmatroska v1.0.0
Attachment : Yes / Yes

Видео
Идентификатор : 1
Формат : AVC
Формат/Информация : Advanced Video Codec
Профиль формата : High@L4.1
Параметр CABAC формата : Да
Параметр ReFrames формата : 4 кадра
Идентификатор кодека : V_MPEG4/ISO/AVC
Продолжительность : 2 ч. 12 м.
Битрейт : 13,0 Мбит/сек
Ширина : 1920 пикселей
Высота : 1080 пикселей
Соотношение сторон : 16:9
Режим частоты кадров : Постоянный
Частота кадров : 23,976 кадра/сек
Цветовое пространство : YUV
Субдискретизация насыщенности : 4:2:0
Битовая глубина : 8 бит
Тип развёртки : Прогрессивная
Бит/(Пиксели*Кадры) : 0.261
Размер потока : 11,8 Гбайт (90%)
Библиотека кодирования : x264 core 129 r2230 1cffe9f
Настройки программы : cabac=1 / ref=4 / deblock=1:-3:-3 / analyse=0x3:0x133 / me=umh / subme=11 / psy=1 / psy_rd=1.05:0.10 / mixed_ref=1 / me_range=64 / chroma_me=1 / trellis=2 / 8x8dct=1 / cqm=0 / deadzone=21,11 / fast_pskip=0 / chroma_qp_offset=-3 / threads=12 / lookahead_threads=2 / sliced_threads=0 / nr=0 / decimate=1 / interlaced=0 / bluray_compat=0 / constrained_intra=0 / bframes=8 / b_pyramid=2 / b_adapt=2 / b_bias=0 / direct=3 / weightb=1 / open_gop=0 / weightp=2 / keyint=250 / keyint_min=23 / scenecut=40 / intra_refresh=0 / rc_lookahead=80 / rc=2pass / mbtree=1 / bitrate=13000 / ratetol=1.0 / qcomp=0.60 / qpmin=0 / qpmax=69 / qpstep=4 / cplxblur=20.0 / qblur=0.5 / vbv_maxrate=40000 / vbv_bufsize=30000 / nal_hrd=none / ip_ratio=1.40 / aq=1:0.90
Язык : English
Default : Да
Forced : Нет

Аудио #1
Идентификатор : 2
Формат : AC-3
Формат/Информация : Audio Coding 3
Расширение режима : CM (complete main)
Параметр Endianness формата : Big
Идентификатор кодека : A_AC3
Продолжительность : 2 ч. 12 м.
Вид битрейта : Постоянный
Битрейт : 448 Кбит/сек
Каналы : 6 каналов
Расположение каналов : Front: L C R, Side: L R, LFE
Частота : 48,0 КГц
Битовая глубина : 16 бит
Метод сжатия : С потерями
Размер потока : 426 Мбайт (3%)
Язык : Russian
Default : Нет
Forced : Нет

Аудио #2
Идентификатор : 3
Формат : AC-3
Формат/Информация : Audio Coding 3
Расширение режима : CM (complete main)
Параметр Endianness формата : Big
Идентификатор кодека : A_AC3
Продолжительность : 2 ч. 12 м.
Вид битрейта : Постоянный
Битрейт : 640 Кбит/сек
Каналы : 6 каналов
Расположение каналов : Front: L C R, Side: L R, LFE
Частота : 48,0 КГц
Битовая глубина : 16 бит
Метод сжатия : С потерями
Размер потока : 608 Мбайт (5%)
Язык : Korean
Default : Нет
Forced : Нет

Меню
00:00:00.000 : :1 - 0:00:00
00:12:41.886 : :2 - 0:12:41
00:21:34.502 : :3 - 0:21:34
00:33:09.362 : :4 - 0:33:09
00:45:42.198 : :5 - 0:45:42
00:55:38.627 : :6 - 0:55:38
01:03:49.909 : :7 - 1:03:49
01:17:13.462 : :8 - 1:17:13
01:30:14.534 : :9 - 1:30:14
01:39:53.863 : :10 - 1:39:53
01:50:35.963 : :11 - 1:50:35
02:01:59.270 : :12 - 2:01:59
Информация о торренте
Торрент:  Зарегистрирован [29 июл 2014, 11:30] Для скачивания необходимо Зарегистрироваться!



Если Вы уже зарегистрированы, то авторизуйтесь на трекере!
Статус:  
Размер:  13.03 ГБ (13 994 251 855 байт)
Приватный:  Нет (DHT включён)
Хэш:  578ddbc038d8db9eecab
0ccf9093b5e96aea5e8b
Здоровье:  100%
.torrent скачан:  4
Как тут качать  Правила, основные инструкции, FAQ-и




 Профиль  
 
Показать сообщения за:  Поле сортировки  
Начать новую тему Ответить на тему  [ 1 сообщение ] 


Кто сейчас на трекере

Сейчас этот форум просматривают: нет зарегистрированных пользователей и гости: 1


Вы не можете начинать темы
Вы не можете отвечать на сообщения
Вы не можете редактировать свои сообщения
Вы не можете удалять свои сообщения
Вы не можете добавлять вложения

Найти:


Правообладателям

!ВНИМАНИЕ!
Ресурс не предоставляет электронные версии произведений, а занимается лишь коллекционированием и каталогизацией ссылок, присылаемых и публикуемых на форуме нашими читателями. Если вы являетесь правообладателем какого-либо представленного материала и не желаете чтобы ссылка на него находилась в нашем каталоге, свяжитесь с нами и мы незамедлительно удалим её. Файлы для обмена на трекере предоставлены пользователями сайта, и администрация не несёт ответственности за их содержание. Просьба не заливать файлы, защищенные авторскими правами, а также файлы нелегального содержания!
cron
Вверх страницы
Вниз страницы
ppkBB3cker v.2 © 2008-2011 @ PPK