3d-tracker.ru • Просмотр темы - Шaг впepёд: Bсё или нuчeгo в 3Д / Stер Up Аll In 3D (Триш Си / Trish Sie) [2014, Драма, мелодрама, музыка, BDrip, 1080p] OverUnder / Вертикальная стереопара

Регистрация Имя: Пароль: Запомнить Забыли пароль?



Правила форума





Начать новую тему Ответить на тему  [ 1 сообщение ] 
Статистика раздачи
Размер: 20.56 ГБ | Зарегистрирован: 07 дек 2014, 11:44 | .torrent скачан: 6
Сиды: 4 [0 байт/сек]    Личи: 6 [0 байт/сек]
Автор Сообщение
 СообщениеДобавлено: 07 дек 2014, 11:46 
Не в сети
VIP аплоадер
Зарегистрирован: 07 май 2014, 18:16
Торренты: 50
Раздал: 2.91 ТБ 
Скачал: 29.47 ГБ 
Ратио: 100.960
Спасибо: 101 / 0
Сообщения: 40
Комментарии: 9

Шaг впeрёд: Всё или ничeгo / Stеp Up Аll In


Год выпуска: 2014
Страна: США(Offspring Entertainment, Summit Entertainment)
Жанр: Драма, мелодрама, музыка
Продолжительность: 01:51:51

Перевод: Профессиональный дублированный(iTunes)
Русские субтитры: нет
Режиссер на русском: Триш Си
Режиссер на английском: Trish Sie

В ролях: Райан Гузман, Брайана Эвиган, Стивен Босс, Миша Гэбриел Хэмилтон, Изабелла Мико, Элисон Стоунер, Адам Дж. Севани, Стивен Стево Джонс, Дэвид Шрейбман, Мари Кода

Описание: В переливающемся огнями Лас-Вегасе лучшие танцоры планеты сойдутся в батле, который решит все. Талантливый самоучка Шон и красотка Энди, мечтающие о славе и богатстве, примут участие в популярном реалити-шоу и бросят вызов «непобедимым» командам противников, а главное — самим себе. Смогут ли они преодолеть страх, пережить предательство и обуздать страсть, чтобы стать первыми и осуществить свои мечты?

Сэмпл: http://sendfile.su/1056284

Качество: BDrip
Контейнер: MKV
Формат 3D: OverUnder / Вертикальная стереопара
Порядок ракурсов: левый ракурс первый
Видео кодек: x264
Аудио кодек: AC3
Видео: AVC / High@L5.0 / 23,976 fps / 1920х2160 / 24,8 Мбит/сек
Аудио: Русский / AC3 / 48 KHz / 5.1 ch / 384 Кбит/сек(iTunes)
Аудио 2: Русский / AC3 / 48 KHz / 5.1 ch / 640 Кбит/сек

Релиз группы:


ВНИМАНИЕ ! На встроенных ТВ-плеерах работать не будет!!!
ТВ Samsung в названии которого есть надпись Ultra HD , и LG Ultra HD 800 серии воспроизводят полные стереопары встроенными плеерами
Железные плееры на которых воспроизводятся полные стереопары:Popcorn C-200 , Dune HD Smart D1 , Dune HD DUO , Dune HD Smart H1 , Dune HD Smart B1 , Dune HD Max , Dune HD TV-303D , Dune HD Base 3D, Philips HMP7001

Общее
Уникальный идентификатор : 171815108358778939150419446316045108468 (0x814262DE919F969D9EB430F021AF04F4)
Полное имя : E:\закачки\Stеp Up Аll In.Rip by SeRoGa00.mkv
Формат : Matroska
Версия формата : Version 2
Размер файла : 20,6 Гбайт
Продолжительность : 1 ч. 51 м.
Общий поток : 26,3 Мбит/сек
Дата кодирования : UTC 2014-12-02 14:11:44
Программа кодирования : mkvmerge v3.4.0 ('Rapunzel') сборка от May 15 2010 09:38:20
Библиотека кодирования : libebml v0.8.0 + libmatroska v0.9.0

Видео
Идентификатор : 1
Формат : AVC
Формат/Информация : Advanced Video Codec
Профиль формата : High@L5.0
Параметр CABAC формата : Да
Параметр ReFrames формата : 4 кадра
Идентификатор кодека : V_MPEG4/ISO/AVC
Продолжительность : 1 ч. 51 м.
Битрейт : 24,8 Мбит/сек
Ширина : 1920 пикселей
Высота : 2160 пикселей
Соотношение сторон : 0,889
Частота кадров : 23,976 кадра/сек
Цветовое пространство : YUV
Субдискретизация насыщенности : 4:2:0
Битовая глубина : 8 бит
Тип развёртки : Прогрессивная
Бит/(Пиксели*Кадры) : 0.249
Размер потока : 19,3 Гбайт (94%)
Заголовок : Rip by SeRoGa00
Библиотека кодирования : x264 core 142 r2479 dd79a61
Настройки программы : cabac=1 / ref=4 / deblock=1:-3:-3 / analyse=0x3:0x113 / me=umh / subme=9 / psy=1 / psy_rd=1.00:0.15 / mixed_ref=1 / me_range=24 / chroma_me=1 / trellis=2 / 8x8dct=1 / cqm=0 / deadzone=21,11 / fast_pskip=1 / chroma_qp_offset=-3 / threads=9 / lookahead_threads=1 / sliced_threads=0 / nr=0 / decimate=1 / interlaced=0 / bluray_compat=0 / constrained_intra=0 / bframes=8 / b_pyramid=2 / b_adapt=2 / b_bias=0 / direct=3 / weightb=1 / open_gop=0 / weightp=2 / keyint=250 / keyint_min=23 / scenecut=40 / intra_refresh=0 / rc_lookahead=60 / rc=crf / mbtree=1 / crf=18.0 / qcomp=0.60 / qpmin=10 / qpmax=69 / qpstep=4 / vbv_maxrate=30000 / vbv_bufsize=30000 / crf_max=0.0 / nal_hrd=none / filler=0 / ip_ratio=1.40 / aq=1:1.00
Язык : English

Аудио #1
Идентификатор : 2
Формат : AC-3
Формат/Информация : Audio Coding 3
Расширение режима : CM (complete main)
Идентификатор кодека : A_AC3
Продолжительность : 1 ч. 51 м.
Вид битрейта : Постоянный
Битрейт : 384 Кбит/сек
Каналы : 6 каналов
Расположение каналов : Front: L C R, Side: L R, LFE
Частота : 48,0 КГц
Битовая глубина : 16 бит
Метод сжатия : С потерями
Размер потока : 307 Мбайт (1%)

Аудио #2
Идентификатор : 3
Формат : AC-3
Формат/Информация : Audio Coding 3
Расширение режима : CM (complete main)
Идентификатор кодека : A_AC3
Продолжительность : 1 ч. 51 м.
Вид битрейта : Постоянный
Битрейт : 640 Кбит/сек
Каналы : 6 каналов
Расположение каналов : Front: L C R, Side: L R, LFE
Частота : 48,0 КГц
Битовая глубина : 16 бит
Метод сжатия : С потерями
Размер потока : 512 Мбайт (2%)





Информация о торренте
Торрент:  Зарегистрирован [07 дек 2014, 11:44] Для скачивания необходимо Зарегистрироваться!



Если Вы уже зарегистрированы, то авторизуйтесь на трекере!
Статус:   изменил Гость (07 дек 2014, 16:18)
Размер:  20.56 ГБ (22 070 897 276 байт)
Приватный:  Нет (DHT включён)
Хэш:  f7d59cf880c43d4ba36f
0e9ff9bf231a2d4f9103
Здоровье:  66%
.torrent скачан:  6
Как тут качать  Правила, основные инструкции, FAQ-и




 Профиль  
 
Показать сообщения за:  Поле сортировки  
Начать новую тему Ответить на тему  [ 1 сообщение ] 


Кто сейчас на трекере

Сейчас этот форум просматривают: нет зарегистрированных пользователей и гости: 1


Вы не можете начинать темы
Вы не можете отвечать на сообщения
Вы не можете редактировать свои сообщения
Вы не можете удалять свои сообщения
Вы не можете добавлять вложения

Найти:


Правообладателям

!ВНИМАНИЕ!
Ресурс не предоставляет электронные версии произведений, а занимается лишь коллекционированием и каталогизацией ссылок, присылаемых и публикуемых на форуме нашими читателями. Если вы являетесь правообладателем какого-либо представленного материала и не желаете чтобы ссылка на него находилась в нашем каталоге, свяжитесь с нами и мы незамедлительно удалим её. Файлы для обмена на трекере предоставлены пользователями сайта, и администрация не несёт ответственности за их содержание. Просьба не заливать файлы, защищенные авторскими правами, а также файлы нелегального содержания!
cron
Вверх страницы
Вниз страницы
ppkBB3cker v.2 © 2008-2011 @ PPK